<?xml version="1.0" standalone="no"?>
  <!DOCTYPE svg PUBLIC "-//W3C//DTD SVG 1.1//EN" "http://www.w3.org/Graphics/SVG/1.1/DTD/svg11.dtd" >
  <svg>
  <metadata>
  Created by font-carrier
  </metadata>
  <defs>
  <font id="GOSTTypeBU" horiz-adv-x="3280" vert-adv-y="3280" >
    <font-face
      
      font-family="GOST Type BU"
      
      font-weight="400"
      
      font-stretch="normal"
      
      units-per-em="1460"
      
      ascent="1351"
      
      descent="-360"
      
    />
      <missing-glyph />

      

      
      <glyph glyph-name="uni21" unicode="&#x21;" d="M200 50Q200 0 150 0Q100 0 100 50Q100 100 150 100Q200 100 200 50M200 250Q200 200 150 200Q100 200 100 250L100 950Q100 1000 150 1000Q200 1000 200 950L200 250Z"  horiz-adv-x="300" vert-adv-y="1460"  />

      
      <glyph glyph-name="uni22" unicode="&#x22;" d="M198 938L148 738Q138 700 100 700Q48 700 48 748Q48 755 50 762L100 962Q110 1000 148 1000Q200 1000 200 952Q200 945 198 938M398 938L348 738Q338 700 300 700Q248 700 248 748Q248 755 250 762L300 962Q310 1000 348 1000Q400 1000 400 952Q400 945 398 938Z"  horiz-adv-x="500" vert-adv-y="1460"  />

      
      <glyph glyph-name="uni23" unicode="&#x23;" d="M632 646L425 646Q370 385 361 350L568 350L632 646M322 646L242 646Q192 646 192 696Q192 746 242 746L344 746L390 960Q399 1000 438 1000Q489 1000 489 952Q489 946 488 940Q478 896 447 746L654 746L700 961Q708 1000 747 1000Q799 1000 799 951Q799 945 798 939L756 746L834 746Q884 746 884 696Q884 646 834 646L735 646L671 350L750 350Q800 350 800 300Q800 250 750 250L649 250L603 37Q595-2 556-2Q504-2 504 47Q504 53 505 59L546 250L341 250L295 38Q286-2 247-2Q196-2 196 46Q196 52 197 58L238 250L158 250Q108 250 108 300Q108 350 158 350L259 350L322 646Z"  horiz-adv-x="990" vert-adv-y="1460"  />

      
      <glyph glyph-name="uni24" unicode="&#x24;" d="M703 242Q703 106 598 50Q524 11 452 0L452-150Q452-200 402-200Q352-200 352-150L352-3Q245 8 127 85Q104 100 104 125Q104 145 118.50 161.50Q133 178 154 178Q168 178 181 169Q271 110 352 99L352 510L176 640Q108 690 108 781Q108 901 219 959Q279 990 352 998L352 1146Q352 1196 402 1196Q452 1196 452 1146L452 997Q573 984 669 916Q691 900 691 876Q691 856 676 840Q661 824 641 824Q625 824 611 834Q541 884 452 897L452 559L603 448Q703 374 703 242M352 633L352 898Q305 892 265 871Q204 839 204 779Q204 743 232 722L352 633M606 241Q606 322 547 366L452 436L452 102Q502 111 552 138Q606 167 606 241Z"  horiz-adv-x="800" vert-adv-y="1460"  />

      
      <glyph glyph-name="uni25" unicode="&#x25;" d="M460 770Q460 831 419 867Q383 900 330 900Q277 900 241 867Q200 831 200 770Q200 709 241 673Q277 640 330 640Q383 640 419 673Q460 709 460 770M1300 230Q1300 291 1259 327Q1223 360 1170 360Q1117 360 1081 327Q1040 291 1040 230Q1040 169 1081 133Q1117 100 1170 100Q1223 100 1259 133Q1300 169 1300 230M560 770Q560 661 488 597Q423 540 330 540Q237 540 172 597Q100 661 100 770Q100 879 172 943Q237 1000 330 1000Q423 1000 488 943Q560 879 560 770M1092 922L492 22Q477-1 452-1Q431-1 415 14Q399 29 399 49Q399 64 408 78L1008 978Q1023 1001 1048 1001Q1069 1001 1085 986Q1101 971 1101 951Q1101 936 1092 922M1400 230Q1400 121 1328 57Q1263 0 1170 0Q1077 0 1012 57Q940 121 940 230Q940 339 1012 403Q1077 460 1170 460Q1263 460 1328 403Q1400 339 1400 230Z"  horiz-adv-x="1500" vert-adv-y="1460"  />

      
      <glyph glyph-name="uni26" unicode="&#x26;" d="M823 50Q823 29 807 14Q791-1 770-1Q746-1 731 21L667 113L615 63Q529-20 425-20Q304-20 210 80Q116 180 116 306Q116 426 208 517L321 611L251 711Q221 753 221 803Q221 879 283 940Q345 1001 422 1001Q501 1001 561 938.50Q621 876 621 797Q621 731 574 692L455 593L684 265L738 316Q753 330 772 330Q792 330 807 314.50Q822 299 822 279Q822 259 806 244L741 183L813 79Q823 65 823 50M528 806Q528 842 492.50 872Q457 902 420 902Q382 902 351 873.50Q320 845 320 809Q320 788 333 769L398 675L510 768Q528 783 528 806M610 195L378 529L275 443Q207 386 207 305Q207 222 273.50 154Q340 86 424 86Q493 86 549 138L610 195Z"  horiz-adv-x="900" vert-adv-y="1460"  />

      
      <glyph glyph-name="uni27" unicode="&#x27;" d="M212 938L162 738Q152 700 114 700Q62 700 62 748Q62 755 64 762L114 962Q124 1000 162 1000Q214 1000 214 952Q214 945 212 938Z"  horiz-adv-x="300" vert-adv-y="1460"  />

      
      <glyph glyph-name="uni28" unicode="&#x28;" d="M346-84Q353-97 353-110Q353-130 337-144Q321-158 301-158Q273-158 258-132Q108 137 108 446Q108 755 258 1024Q273 1050 301 1050Q321 1050 337 1036Q353 1022 353 1001Q353 989 346 976Q208 729 208 446Q208 163 346-84Z"  horiz-adv-x="450" vert-adv-y="1460"  />

      
      <glyph glyph-name="uni29" unicode="&#x29;" d="M188-132Q173-158 145-158Q125-158 109-144Q93-130 93-110Q93-97 100-84Q238 163 238 446Q238 729 100 976Q93 989 93 1001Q93 1022 109 1036Q125 1050 145 1050Q173 1050 188 1024Q338 755 338 446Q338 137 188-132Z"  horiz-adv-x="450" vert-adv-y="1460"  />

      
      <glyph glyph-name="uni2a" unicode="&#x2a;" d="M429 750L477 678Q486 664 486 649Q486 629 470 614Q454 599 433 599Q408 599 393 622L335 709L277 622Q262 599 237 599Q216 599 200 614Q184 629 184 649Q184 664 193 678L241 750L155 750Q105 750 105 800Q105 850 155 850L241 850L193 922Q184 936 184 951Q184 971 200 986Q216 1001 237 1001Q262 1001 277 978L335 891L393 978Q408 1001 433 1001Q454 1001 470 986Q486 971 486 951Q486 936 477 922L429 850L515 850Q565 850 565 800Q565 750 515 750L429 750Z"  horiz-adv-x="650" vert-adv-y="1460"  />

      
      <glyph glyph-name="uni2b" unicode="&#x2b;" d="M402 300L402 150Q402 100 352 100Q302 100 302 150L302 300L152 300Q102 300 102 350Q102 400 152 400L302 400L302 550Q302 600 352 600Q402 600 402 550L402 400L552 400Q602 400 602 350Q602 300 552 300L402 300Z"  horiz-adv-x="700" vert-adv-y="1460"  />

      
      <glyph glyph-name="uni2c" unicode="&#x2c;" d="M205 50Q204 44 204 38L154-162Q144-200 106-200Q54-200 54-152Q54-145 56-138L105 58L105 100Q105 150 155 150Q205 150 205 100L205 50Z"  horiz-adv-x="300" vert-adv-y="1460"  />

      
      <glyph glyph-name="uni2d" unicode="&#x2d;" d="M550 300L150 300Q100 300 100 350Q100 400 150 400L550 400Q600 400 600 350Q600 300 550 300Z"  horiz-adv-x="700" vert-adv-y="1460"  />

      
      <glyph glyph-name="uni2e" unicode="&#x2e;" d="M100 50Q100 100 150 100Q200 100 200 50Q200 0 150 0Q100 0 100 50Z"  horiz-adv-x="300" vert-adv-y="1460"  />

      
      <glyph glyph-name="uni2f" unicode="&#x2f;" d="M747 1232L197-168Q184-200 152-200Q99-200 99-152Q99-142 103-132L653 1268Q666 1300 698 1300Q751 1300 751 1252Q751 1242 747 1232Z"  horiz-adv-x="900" vert-adv-y="1460"  />

      
      <glyph glyph-name="uni30" unicode="&#x30;" d="M500 220L500 780Q500 829 464.50 864.50Q429 900 380 900L320 900Q270 900 235 864.50Q200 829 200 780L200 220Q200 170 235 135Q270 100 320 100L380 100Q429 100 464.50 135Q500 170 500 220M600 220Q600 128 535.50 64Q471 0 380 0L320 0Q230 0 165 64.50Q100 129 100 220L100 780Q100 871 165 935.50Q230 1000 320 1000L380 1000Q471 1000 535.50 935.50Q600 871 600 780L600 220Z"  horiz-adv-x="700" vert-adv-y="1460"  />

      
      <glyph glyph-name="uni31" unicode="&#x31;" d="M400 50Q400 0 350 0Q300 0 300 50L300 830L185 715Q170 700 151 700Q131 700 115.50 715.50Q100 731 100 751Q100 770 115 785L315 985Q337 1007 359 1007Q400 1007 400 950L400 50Z"  horiz-adv-x="500" vert-adv-y="1460"  />

      
      <glyph glyph-name="uni32" unicode="&#x32;" d="M563 615L240 100L550 100Q600 100 600 50Q600 0 550 0L150 0Q96 0 96 40Q96 57 108 77L477 666Q499 701 499 742Q499 805 451 852.50Q403 900 334 900Q242 900 192 823Q177 800 152 800Q131 800 115 814.50Q99 829 99 849Q99 864 108 877Q189 1001 334 1001Q444 1001 522 922Q600 843 600 740Q600 673 563 615Z"  horiz-adv-x="700" vert-adv-y="1460"  />

      
      <glyph glyph-name="uni33" unicode="&#x33;" d="M345 899L145 899Q95 899 95 949Q95 999 145 999L345 999Q463 999 533 921Q595 851 595 750Q595 618 498 547Q595 471 595 349L595 249Q595 145 522 72Q449-1 345-1L145-1Q95-1 95 49Q95 99 145 99L345 99Q407 99 451 143Q495 187 495 249L495 349Q495 411 451 455Q407 499 345 499L245 499Q195 499 195 549Q195 599 245 599L345 599Q413 599 454 647Q491 690 491 752Q491 812 455 853Q415 899 345 899Z"  horiz-adv-x="700" vert-adv-y="1460"  />

      
      <glyph glyph-name="uni34" unicode="&#x34;" d="M550 300L650 300Q700 300 700 250Q700 200 650 200L550 200L550 50Q550 0 500 0Q450 0 450 50L450 200L150 200Q98 200 98 241Q98 251 102 264L302 964Q312 1000 348 1000Q400 1000 400 952Q400 944 398 936L216 300L450 300L450 450Q450 500 500 500Q550 500 550 450L550 300Z"  horiz-adv-x="800" vert-adv-y="1460"  />

      
      <glyph glyph-name="uni35" unicode="&#x35;" d="M200 900L200 600L350 600Q454 600 527 527Q600 454 600 350L600 250Q600 146 527 73Q454 0 350 0L150 0Q100 0 100 50Q100 100 150 100L350 100Q412 100 456 144Q500 188 500 250L500 350Q500 412 456 456Q412 500 350 500L150 500Q100 500 100 550L100 950Q100 1000 150 1000L550 1000Q600 1000 600 950Q600 900 550 900L200 900Z"  horiz-adv-x="700" vert-adv-y="1460"  />

      
      <glyph glyph-name="uni36" unicode="&#x36;" d="M219 600L400 600Q483 600 541.50 541.50Q600 483 600 400L600 200Q600 117 541.50 58.50Q483 0 400 0L300 0Q218 0 159 58.50Q100 117 100 200L100 450Q100 593 154 720Q236 914 431 996Q442 1000 452 1000Q500 1000 500 949Q500 917 469 904Q313 838 246 681Q231 645 219 600M202 500Q200 466 200 450L200 200Q200 159 229.50 129.50Q259 100 300 100L400 100Q441 100 470.50 129.50Q500 159 500 200L500 400Q500 441 470.50 470.50Q441 500 400 500L202 500Z"  horiz-adv-x="700" vert-adv-y="1460"  />

      
      <glyph glyph-name="uni37" unicode="&#x37;" d="M200 900L200 850Q200 800 150 800Q100 800 100 850L100 950Q100 1000 150 1000L550 1000Q601 1000 601 959Q601 949 598 937L348 37Q338 0 301 0Q250 0 250 48Q250 55 252 63L484 900Q472 900 410 900L200 900Z"  horiz-adv-x="700" vert-adv-y="1460"  />

      
      <glyph glyph-name="uni38" unicode="&#x38;" d="M566 556Q701 474 701 300Q701 178 626 94Q542 0 400 0Q258 0 175 94Q100 178 100 300Q100 474 235 557Q151 629 151 750Q151 852 213 922Q282 1000 400 1000Q518 1000 588 922Q650 851 650 750Q650 628 566 556M400 500Q306 500 250 437Q200 381 200 300Q200 219 250 162Q306 100 400 100Q495 100 550 162Q600 219 600 300Q600 381 550 437Q495 500 400 500M400 600Q471 600 512 647Q550 689 550 750Q550 811 512 853Q471 900 400 900Q330 900 288 853Q251 811 251 750Q251 689 288 647Q330 600 400 600Z"  horiz-adv-x="800" vert-adv-y="1460"  />

      
      <glyph glyph-name="uni39" unicode="&#x39;" d="M481 400L300 400Q218 400 159 458.50Q100 517 100 600L100 800Q100 883 159 941.50Q218 1000 300 1000L400 1000Q483 1000 541.50 941.50Q600 883 600 800L600 551Q600 409 546 281Q463 84 269 4Q259 0 248 0Q200 0 200 52Q200 83 231 96Q388 161 454 320Q471 360 481 400M498 500Q500 517 500 550L500 800Q500 841 470.50 870.50Q441 900 400 900L300 900Q259 900 229.50 870.50Q200 841 200 800L200 600Q200 559 229.50 529.50Q259 500 300 500L498 500Z"  horiz-adv-x="700" vert-adv-y="1460"  />

      
      <glyph glyph-name="uni3a" unicode="&#x3a;" d="M100 685Q100 735 150 735Q200 735 200 685Q200 635 150 635Q100 635 100 685M100 280Q100 330 150 330Q200 330 200 280Q200 230 150 230Q100 230 100 280Z"  horiz-adv-x="300" vert-adv-y="1460"  />

      
      <glyph glyph-name="uni3b" unicode="&#x3b;" d="M199 38L149-164Q140-202 101-202Q49-202 49-154Q49-147 51-140L101 62Q110 100 149 100Q201 100 201 52Q201 45 199 38M200 455Q200 405 150 405Q100 405 100 455Q100 505 150 505Q200 505 200 455Z"  horiz-adv-x="300" vert-adv-y="1460"  />

      
      <glyph glyph-name="uni3c" unicode="&#x3c;" d="M572 195Q601 181 601 151Q601 131 586.50 115Q572 99 552 99Q540 99 528 105L128 305Q92 323 92 350Q92 377 128 395L528 595Q540 601 552 601Q572 601 586.50 585Q601 569 601 549Q601 519 572 505L262 350L572 195Z"  horiz-adv-x="700" vert-adv-y="1460"  />

      
      <glyph glyph-name="uni3d" unicode="&#x3d;" d="M550 200L150 200Q100 200 100 250Q100 300 150 300L550 300Q600 300 600 250Q600 200 550 200M550 450L150 450Q100 450 100 500Q100 550 150 550L550 550Q600 550 600 500Q600 450 550 450Z"  horiz-adv-x="700" vert-adv-y="1460"  />

      
      <glyph glyph-name="uni3e" unicode="&#x3e;" d="M572 305L172 105Q160 99 148 99Q128 99 113.50 115Q99 131 99 151Q99 181 128 195L438 350L128 505Q99 519 99 549Q99 569 113.50 585Q128 601 148 601Q160 601 172 595L572 395Q608 377 608 350Q608 323 572 305Z"  horiz-adv-x="700" vert-adv-y="1460"  />

      
      <glyph glyph-name="uni3f" unicode="&#x3f;" d="M300 50Q300 100 350 100Q400 100 400 50Q400 0 350 0Q300 0 300 50M430 510Q400 488 400 450L400 250Q400 200 350 200Q300 200 300 250L300 450Q300 537 369 590Q426 633 460 680Q487 717 487 762Q487 817 448 858.50Q409 900 350 900Q251 901 190 820Q174 799 151 799Q130 799 114.50 814Q99 829 99 849Q99 865 110 880Q202 1000 350 1000Q452 1000 520 928.50Q588 857 588 761Q588 684 540 620Q492 556 430 510Z"  horiz-adv-x="700" vert-adv-y="1460"  />

      
      <glyph glyph-name="uni40" unicode="&#x40;" d="M800 399Q830 350 850 350L896 350Q933 350 961 373.50Q989 397 995 432Q1001 467 1001 500Q1001 664 884 782Q767 900 600 900Q434 900 317 783Q200 666 200 500Q200 335 317 217.50Q434 100 600 100Q729 100 838 184Q853 195 869 195Q889 195 904 179Q919 163 919 143Q919 120 898 104Q761 0 600 0Q392 0 246 146.50Q100 293 100 500Q100 708 246 854Q392 1000 600 1000Q809 1000 954.50 852.50Q1100 705 1100 501Q1100 459 1093 417Q1081 345 1025 297.50Q969 250 896 250L850 250Q802 250 750 298Q694 250 650 250L550 250Q488 250 444 294Q400 338 400 401L400 601Q400 663 444 706.50Q488 750 550 750L750 750Q800 750 800 700L800 399M700 401L700 650L550 650Q500 650 500 601L500 401Q500 350 550 350L650 350Q700 350 700 401Z"  horiz-adv-x="1200" vert-adv-y="1460"  />

      
      <glyph glyph-name="uni41" unicode="&#x41;" d="M604 353L457 794L309 353L604 353M275 251L203 35Q192 1 158 1Q106 1 106 49Q106 58 109 67L410 967Q424 1010 457 1010Q490 1010 504 967L804 67Q807 58 807 49Q807 1 755 1Q721 1 710 35L638 251L275 251Z"  horiz-adv-x="900" vert-adv-y="1460"  />

      
      <glyph glyph-name="uni42" unicode="&#x42;" d="M725 300Q725 176 637 88Q549 0 425 0L125 0Q103 0 89 14Q75 28 75 50L75 950Q75 970 90 985Q105 1000 125 1000L425 1000Q529 1000 602 926.50Q675 853 675 750Q675 631 582 556Q725 467 725 300M575 750Q575 812 531 856Q487 900 425 900L175 900L175 600L425 600Q487 600 531 644Q575 688 575 750M625 300Q625 383 566.50 441.50Q508 500 425 500L175 500L175 100L425 100Q508 100 566.50 158.50Q625 217 625 300Z"  horiz-adv-x="800" vert-adv-y="1460"  />

      
      <glyph glyph-name="uni43" unicode="&#x43;" d="M550 0L350 0Q246 0 173 73Q100 146 100 250L100 750Q100 854 173 927Q246 1000 350 1000L550 1000Q600 1000 600 950Q600 900 550 900L350 900Q288 900 244 856Q200 812 200 750L200 250Q200 188 244 144Q288 100 350 100L550 100Q600 100 600 50Q600 0 550 0Z"  horiz-adv-x="700" vert-adv-y="1460"  />

      
      <glyph glyph-name="uni44" unicode="&#x44;" d="M700 250Q700 146 627 73Q554 0 450 0L150 0Q130 0 115 15Q100 30 100 50L100 950Q100 970 115 985Q130 1000 150 1000L450 1000Q554 1000 627 926.50Q700 853 700 750L700 250M600 250L600 750Q600 812 556 856Q512 900 450 900L200 900L200 100L450 100Q512 100 556 144Q600 188 600 250Z"  horiz-adv-x="800" vert-adv-y="1460"  />

      
      <glyph glyph-name="uni45" unicode="&#x45;" d="M200 600L451 600Q501 600 501 550Q501 500 451 500L200 500L200 100L551 100Q601 100 601 50Q601 0 551 0L150 0Q100 0 100 47L100 950Q100 1000 150 1000L551 1000Q601 1000 601 950Q601 900 551 900L200 900L200 600Z"  horiz-adv-x="700" vert-adv-y="1460"  />

      
      <glyph glyph-name="uni46" unicode="&#x46;" d="M200 601L550 601Q600 601 600 551Q600 501 550 501L200 501L200 50Q200 0 150 0Q100 0 100 50L100 950Q100 1000 150 1000L550 1000Q600 1000 600 950Q600 900 550 900L200 900L200 601Z"  horiz-adv-x="700" vert-adv-y="1460"  />

      
      <glyph glyph-name="uni47" unicode="&#x47;" d="M700 50Q700 30 685 15Q670 0 650 0L350 0Q246 0 173 73Q100 146 100 250L100 750Q100 854 173 927Q246 1000 350 1000L650 1000Q700 1000 700 950Q700 900 650 900L350 900Q288 900 244 856Q200 812 200 750L200 250Q200 188 244 144Q288 100 350 100L600 100L600 500L550 500Q500 500 500 550Q500 600 550 600L650 600Q670 600 685 585Q700 570 700 550L700 50Z"  horiz-adv-x="800" vert-adv-y="1460"  />

      
      <glyph glyph-name="uni48" unicode="&#x48;" d="M600 600L600 952Q600 1002 650 1002Q700 1002 700 952L700 52Q700 1 649 1Q600 1 600 50L600 500L200 500L200 50Q200 0 150 0Q100 0 100 50L100 950Q100 1000 150 1000Q200 1000 200 950L200 600L600 600Z"  horiz-adv-x="800" vert-adv-y="1460"  />

      
      <glyph glyph-name="uni49" unicode="&#x49;" d="M200 50Q200 0 150 0Q100 0 100 50L100 950Q100 1000 150 1000Q200 1000 200 950L200 50Z"  horiz-adv-x="300" vert-adv-y="1460"  />

      
      <glyph glyph-name="uni4a" unicode="&#x4a;" d="M500 250Q500 146 427 73Q354 0 250 0L150 0Q100 0 100 50Q100 100 150 100L250 100Q312 100 356 144Q400 188 400 250L400 950Q400 1000 450 1000Q500 1000 500 950L500 250Z"  horiz-adv-x="600" vert-adv-y="1460"  />

      
      <glyph glyph-name="uni4b" unicode="&#x4b;" d="M707 48Q707 28 691 13.50Q675-1 655-1Q627-1 612 26L319 548L200 431L200 50Q200 0 150 0Q100 0 100 50L100 950Q100 999 150 999Q200 999 200 950L200 567L621 985Q636 1000 655 1000Q675 1000 690.50 984.50Q706 969 706 949Q706 930 691 915L393 618L700 74Q707 61 707 48Z"  horiz-adv-x="800" vert-adv-y="1460"  />

      
      <glyph glyph-name="uni4c" unicode="&#x4c;" d="M550 0L150 0Q100 0 100 50L100 950Q100 1000 150 1000Q200 1000 200 950L200 100L550 100Q600 100 600 50Q600 0 550 0Z"  horiz-adv-x="700" vert-adv-y="1460"  />

      
      <glyph glyph-name="uni4d" unicode="&#x4d;" d="M801 50Q801 0 751 0Q701 0 701 50L701 764L494 418Q475 387 451 387Q427 387 408 418L200 764L200 50Q200 0 150 0Q100 0 100 50L100 945Q100 1003 145 1003Q174 1003 193 971L451 542L708 971Q727 1003 755 1003Q801 1003 801 945L801 50Z"  horiz-adv-x="900" vert-adv-y="1460"  />

      
      <glyph glyph-name="uni4e" unicode="&#x4e;" d="M699 55Q699-1 653-1Q623-1 605 31L200 751L200 50Q200 0 150 0Q100 0 100 50L100 945Q100 1000 147 1000Q177 1000 194 969L599 249L599 950Q599 1000 649 1000Q699 1000 699 950L699 55Z"  horiz-adv-x="800" vert-adv-y="1460"  />

      
      <glyph glyph-name="uni4f" unicode="&#x4f;" d="M700 250Q700 146 627 73Q554 0 450 0L350 0Q246 0 173 73Q100 146 100 250L100 750Q100 853 173 926.50Q246 1000 350 1000L450 1000Q554 1000 627 926.50Q700 853 700 750L700 250M600 250L600 750Q600 812 556 856Q512 900 450 900L350 900Q288 900 244 856Q200 812 200 750L200 250Q200 188 244 144Q288 100 350 100L450 100Q512 100 556 144Q600 188 600 250Z"  horiz-adv-x="800" vert-adv-y="1460"  />

      
      <glyph glyph-name="uni50" unicode="&#x50;" d="M600 700Q600 783 541.50 841.50Q483 900 400 900L200 900L200 500L400 500Q483 500 541.50 558.50Q600 617 600 700M700 700Q700 576 612 488Q524 400 400 400L200 400L200 50Q200 0 150 0Q100 0 100 50L100 950Q100 970 115 985Q130 1000 150 1000L400 1000Q524 1000 612 912Q700 824 700 700Z"  horiz-adv-x="800" vert-adv-y="1460"  />

      
      <glyph glyph-name="uni51" unicode="&#x51;" d="M801 51Q801 31 786 15Q771-1 751-1Q735-1 722 8L626 73Q552 0 450 0L350 0Q246 0 173 73Q100 146 100 250L100 750Q100 854 173 927Q246 1000 350 1000L450 1000Q554 1000 627 927Q700 854 700 750L700 250Q700 200 682 156L778 92Q801 77 801 51M600 250L600 750Q600 812 556 856Q512 900 450 900L350 900Q288 900 244 856Q200 812 200 750L200 250Q200 188 244 144Q288 100 350 100L450 100Q500 100 540 130L422 208Q399 223 399 249Q399 269 414 285Q429 301 449 301Q464 301 478 292L595 213Q600 233 600 250Z"  horiz-adv-x="900" vert-adv-y="1460"  />

      
      <glyph glyph-name="uni52" unicode="&#x52;" d="M600 700Q600 783 541.50 841.50Q483 900 400 900L200 900L200 500L400 500Q483 500 541.50 558.50Q600 617 600 700M700 700Q700 598 639 518.50Q578 439 483 412L692 76Q701 62 701 49Q701 29 684.50 14Q668-1 648-1Q623-1 608 23L372 400L200 400L200 50Q200 0 150 0Q100 0 100 50L100 950Q100 970 115 985Q130 1000 150 1000L400 1000Q524 1000 612 912Q700 824 700 700Z"  horiz-adv-x="800" vert-adv-y="1460"  />

      
      <glyph glyph-name="uni53" unicode="&#x53;" d="M669 916Q691 900 691 876Q691 856 676 840Q661 824 641 824Q625 824 611 834Q516 902 400 902Q325 902 264.50 870.50Q204 839 204 779Q204 743 232 722L603 448Q703 374 703 242Q703 105 598 50Q493-5 392-5Q265-5 127 85Q104 100 104 125Q104 146 118.50 162Q133 178 154 178Q168 178 181 169Q294 96 394 96Q471 96 552 138Q606 167 606 241Q606 322 547 366L176 640Q108 690 108 781Q108 901 219 959Q299 1000 400 1000Q550 1000 669 916Z"  horiz-adv-x="800" vert-adv-y="1460"  />

      
      <glyph glyph-name="uni54" unicode="&#x54;" d="M350 900L150 900Q100 900 100 950Q100 1000 150 1000L650 1000Q700 1000 700 950Q700 900 650 900L450 900L450 50Q450 0 400 0Q350 0 350 50L350 900Z"  horiz-adv-x="800" vert-adv-y="1460"  />

      
      <glyph glyph-name="uni55" unicode="&#x55;" d="M700 250Q700 146 627 73Q554 0 450 0L350 0Q246 0 173 73Q100 146 100 250L100 950Q100 1000 150 1000Q200 1000 200 950L200 250Q200 188 244 144Q288 100 350 100L450 100Q512 100 556 144Q600 188 600 250L600 950Q600 1000 650 1000Q700 1000 700 950L700 250Z"  horiz-adv-x="800" vert-adv-y="1460"  />

      
      <glyph glyph-name="uni56" unicode="&#x56;" d="M797 934L497 44Q483 1 450 1Q417 1 403 44L103 934Q100 943 100 952Q100 1000 152 1000Q185 1000 197 966L450 217L703 966Q715 1000 748 1000Q800 1000 800 952Q800 943 797 934Z"  horiz-adv-x="900" vert-adv-y="1460"  />

      
      <glyph glyph-name="uni57" unicode="&#x57;" d="M999 939L799 39Q790-1 751-1Q715-1 703 33L550 454L397 33Q385-1 350-1Q310-1 301 39L101 939Q100 945 100 952Q100 1000 151 1000Q190 1000 199 961L362 229L503 617Q518 658 550 658Q582 658 597 617L738 229L901 961Q910 1000 949 1000Q1000 1000 1000 952Q1000 945 999 939Z"  horiz-adv-x="1100" vert-adv-y="1460"  />

      
      <glyph glyph-name="uni58" unicode="&#x58;" d="M450 591L708 978Q723 1001 748 1001Q769 1001 785 986Q801 971 801 951Q801 936 792 922L511 500L792 78Q801 64 801 49Q801 29 785 14Q769-1 748-1Q723-1 708 22L450 409L192 22Q177-1 152-1Q131-1 115 14Q99 29 99 49Q99 64 108 78L389 500L108 922Q99 936 99 951Q99 971 115 986Q131 1001 152 1001Q177 1001 192 978L450 591Z"  horiz-adv-x="900" vert-adv-y="1460"  />

      
      <glyph glyph-name="uni59" unicode="&#x59;" d="M405 501L117 917Q104 932 104 950Q104 970 120 985.50Q136 1001 156 1001Q177 1001 193 983L455 597L717 983Q732 1001 754 1001Q774 1001 790 985.50Q806 970 806 950Q806 932 793 917L505 501L505 50Q505 0 455 0Q405 0 405 50L405 501Z"  horiz-adv-x="900" vert-adv-y="1460"  />

      
      <glyph glyph-name="uni5a" unicode="&#x5a;" d="M797 922L249 100L755 100Q805 100 805 50Q805 0 755 0L155 0Q100 0 100 40Q100 58 113 78L661 900L155 900Q105 900 105 950Q105 1000 155 1000L755 1000Q810 1000 810 960Q810 942 797 922Z"  horiz-adv-x="900" vert-adv-y="1460"  />

      
      <glyph glyph-name="uni5b" unicode="&#x5b;" d="M256-100L150-100Q100-100 100-50L100 1050Q100 1100 150 1100L256 1100Q306 1100 306 1050Q306 1000 256 1000L200 1000L200 0L256 0Q306 0 306-50Q306-100 256-100Z"  horiz-adv-x="400" vert-adv-y="1460"  />

      
      <glyph glyph-name="uni5c" unicode="&#x5c;" d="M747-132Q751-142 751-152Q751-200 698-200Q666-200 653-168L103 1232Q99 1242 99 1252Q99 1300 152 1300Q184 1300 197 1268L747-132Z"  horiz-adv-x="900" vert-adv-y="1460"  />

      
      <glyph glyph-name="uni5d" unicode="&#x5d;" d="M284-50Q284-100 234-100L128-100Q78-100 78-50Q78 0 128 0L184 0L184 1000L128 1000Q78 1000 78 1050Q78 1100 128 1100L234 1100Q284 1100 284 1050L284-50Z"  horiz-adv-x="400" vert-adv-y="1460"  />

      
      <glyph glyph-name="uni5e" unicode="&#x5e;" d="M591 1180Q602 1166 602 1150Q602 1129 586 1114Q570 1099 550 1099Q527 1099 511 1120Q450 1200 350 1200Q250 1200 190 1120Q174 1099 151 1099Q131 1099 115 1114Q99 1129 99 1150Q99 1165 110 1180Q200 1301 350 1301Q500 1301 591 1180Z"  horiz-adv-x="700" vert-adv-y="1460"  />

      
      <glyph glyph-name="uni5f" unicode="&#x5f;" d="M600-154L0-154L0-54L600-54L600-154Z"  horiz-adv-x="600" vert-adv-y="1460"  />

      
      <glyph glyph-name="uni61" unicode="&#x61;" d="M549 66Q489 0 400 0L300 0Q218 0 159 58.50Q100 117 100 200L100 500Q100 583 159 641.50Q218 700 300 700L550 700Q600 700 600 650L600 201Q600 126 670 96Q701 83 701 52Q701 31 687 15Q673-1 652-1Q641-1 630 4Q580 26 549 66M500 200L500 600L300 600Q259 600 229.50 570.50Q200 541 200 500L200 200Q200 159 229.50 129.50Q259 100 300 100L400 100Q441 100 470.50 129.50Q500 159 500 200Z"  horiz-adv-x="700" vert-adv-y="1460"  />

      
      <glyph glyph-name="uni62" unicode="&#x62;" d="M200 700L400 700Q483 700 541.50 641.50Q600 583 600 500L600 200Q600 117 541.50 58.50Q483 0 400 0L150 0Q100 0 100 50L100 950Q100 1000 150 1000Q200 1000 200 950L200 700M200 600L200 100L400 100Q441 100 470.50 129.50Q500 159 500 200L500 500Q500 541 470.50 570.50Q441 600 400 600L200 600Z"  horiz-adv-x="700" vert-adv-y="1460"  />

      
      <glyph glyph-name="uni63" unicode="&#x63;" d="M450 0L300 0Q218 0 159 58.50Q100 117 100 200L100 500Q100 583 159 641.50Q218 700 300 700L450 700Q500 700 500 650Q500 600 450 600L300 600Q259 600 229.50 570.50Q200 541 200 500L200 200Q200 159 229.50 129.50Q259 100 300 100L450 100Q500 100 500 50Q500 0 450 0Z"  horiz-adv-x="600" vert-adv-y="1460"  />

      
      <glyph glyph-name="uni64" unicode="&#x64;" d="M500 700L500 950Q500 1000 550 1000Q600 1000 600 950L600 50Q600 0 550 0L300 0Q218 0 159 58.50Q100 117 100 200L100 500Q100 583 159 641.50Q218 700 300 700L500 700M500 600L300 600Q259 600 229.50 570.50Q200 541 200 500L200 200Q200 159 229.50 129.50Q259 100 300 100L500 100L500 600Z"  horiz-adv-x="700" vert-adv-y="1460"  />

      
      <glyph glyph-name="uni65" unicode="&#x65;" d="M200 300L200 200Q200 159 229.50 129.50Q259 100 300 100L550 100Q600 100 600 50Q600 0 550 0L300 0Q217 0 158.50 58.50Q100 117 100 200L100 500Q100 583 158.50 641.50Q217 700 300 700L400 700Q483 700 541.50 641.50Q600 583 600 500L600 350Q600 300 550 300L200 300M200 400L500 400L500 500Q500 541 470.50 570.50Q441 600 400 600L300 600Q259 600 229.50 570.50Q200 541 200 500L200 400Z"  horiz-adv-x="700" vert-adv-y="1460"  />

      
      <glyph glyph-name="uni66" unicode="&#x66;" d="M250 700L400 700Q450 700 450 650Q450 600 400 600L250 600L250 50Q250 0 200 0Q150 0 150 50L150 600L100 600Q50 600 50 650Q50 700 100 700L150 700L150 800Q150 883 209 941.50Q268 1000 350 1000L400 1000Q450 1000 450 950Q450 900 400 900L350 900Q309 900 279.50 870.50Q250 841 250 800L250 700Z"  horiz-adv-x="550" vert-adv-y="1460"  />

      
      <glyph glyph-name="uni67" unicode="&#x67;" d="M500 0L300 0Q218 0 159 58.50Q100 117 100 200L100 500Q100 583 159 641.50Q218 700 300 700L550 700Q600 700 600 650L600-100Q600-183 541.50-241.50Q483-300 400-300L200-300Q150-300 150-250Q150-200 200-200L400-200Q441-200 470.50-170.50Q500-141 500-100L500 0M500 100L500 600L300 600Q259 600 229.50 570.50Q200 541 200 500L200 200Q200 159 229.50 129.50Q259 100 300 100L500 100Z"  horiz-adv-x="700" vert-adv-y="1460"  />

      
      <glyph glyph-name="uni68" unicode="&#x68;" d="M200 700L400 700Q483 700 541.50 641.50Q600 583 600 500L600 50Q600 0 550 0Q500 0 500 50L500 500Q500 541 470.50 570.50Q441 600 400 600L200 600L200 50Q200 0 150 0Q100 0 100 50L100 950Q100 1000 150 1000Q200 1000 200 950L200 700Z"  horiz-adv-x="700" vert-adv-y="1460"  />

      
      <glyph glyph-name="uni69" unicode="&#x69;" d="M100 950Q100 1000 150 1000Q200 1000 200 950Q200 900 150 900Q100 900 100 950M200 50Q200 0 150 0Q100 0 100 50L100 650Q100 700 150 700Q200 700 200 650L200 50Z"  horiz-adv-x="300" vert-adv-y="1460"  />

      
      <glyph glyph-name="uni6a" unicode="&#x6a;" d="M100 950Q100 1000 150 1000Q200 1000 200 950Q200 900 150 900Q100 900 100 950M200-100Q200-183 141.50-241.50Q83-300 0-300L-50-300Q-100-300-100-250Q-100-200-50-200L0-200Q41-200 70.50-170.50Q100-141 100-100L100 650Q100 700 150 700Q200 700 200 650L200-100Z"  horiz-adv-x="300" vert-adv-y="1460"  />

      
      <glyph glyph-name="uni6b" unicode="&#x6b;" d="M200 450L520 690Q534 701 550 701Q571 701 586 685Q601 669 601 649Q601 625 580 610L329 422L590 80Q601 66 601 50Q601 29 585 14.50Q569 0 549 0Q526 0 510 20L249 362L200 325L200 50Q200 0 150 0Q100 0 100 50L100 950Q100 1000 150 1000Q200 1000 200 950L200 450Z"  horiz-adv-x="700" vert-adv-y="1460"  />

      
      <glyph glyph-name="uni6c" unicode="&#x6c;" d="M250 0Q188 0 144 44Q100 88 100 150L100 950Q100 1000 150 1000Q200 1000 200 950L200 150Q200 100 250 100Q300 100 300 50Q300 0 250 0Z"  horiz-adv-x="400" vert-adv-y="1460"  />

      
      <glyph glyph-name="uni6d" unicode="&#x6d;" d="M400 600L200 600L200 50Q200 0 150 0Q100 0 100 50L100 650Q100 700 150 700L600 700Q683 700 741.50 641.50Q800 583 800 500L800 50Q800 0 750 0Q700 0 700 50L700 500Q700 541 670.50 570.50Q641 600 600 600L500 600L500 50Q500 0 450 0Q400 0 400 50L400 600Z"  horiz-adv-x="900" vert-adv-y="1460"  />

      
      <glyph glyph-name="uni6e" unicode="&#x6e;" d="M600 50Q600 0 550 0Q500 0 500 50L500 500Q500 541 470.50 570.50Q441 600 400 600L200 600L200 50Q200 0 150 0Q100 0 100 50L100 650Q100 700 150 700L400 700Q483 700 541.50 641.50Q600 583 600 500L600 50Z"  horiz-adv-x="700" vert-adv-y="1460"  />

      
      <glyph glyph-name="uni6f" unicode="&#x6f;" d="M500 220L500 480Q500 529 464.50 564.50Q429 600 380 600L320 600Q270 600 235 564.50Q200 529 200 480L200 220Q200 170 235 135Q270 100 320 100L380 100Q429 100 464.50 135Q500 170 500 220M600 220Q600 128 535.50 64Q471 0 380 0L320 0Q230 0 165 64.50Q100 129 100 220L100 480Q100 571 165 635.50Q230 700 320 700L380 700Q471 700 535.50 635.50Q600 571 600 480L600 220Z"  horiz-adv-x="700" vert-adv-y="1460"  />

      
      <glyph glyph-name="uni70" unicode="&#x70;" d="M200 0L200-250Q200-300 150-300Q100-300 100-250L100 650Q100 700 150 700L400 700Q483 700 541.50 641.50Q600 583 600 500L600 200Q600 117 541.50 58.50Q483 0 400 0L200 0M200 100L400 100Q441 100 470.50 129.50Q500 159 500 200L500 500Q500 541 470.50 570.50Q441 600 400 600L200 600L200 100Z"  horiz-adv-x="700" vert-adv-y="1460"  />

      
      <glyph glyph-name="uni71" unicode="&#x71;" d="M500 0L300 0Q218 0 159 58.50Q100 117 100 200L100 500Q100 583 159 641.50Q218 700 300 700L550 700Q600 700 600 650L600-250Q600-300 550-300Q500-300 500-250L500 0M500 100L500 600L300 600Q259 600 229.50 570.50Q200 541 200 500L200 200Q200 159 229.50 129.50Q259 100 300 100L500 100Z"  horiz-adv-x="700" vert-adv-y="1460"  />

      
      <glyph glyph-name="uni72" unicode="&#x72;" d="M500 550Q500 500 450 500Q400 500 400 550Q400 600 350 600L200 600L200 50Q200 0 150 0Q100 0 100 50L100 650Q100 700 150 700L350 700Q413 700 456.50 656Q500 612 500 550Z"  horiz-adv-x="600" vert-adv-y="1460"  />

      
      <glyph glyph-name="uni73" unicode="&#x73;" d="M598 601Q598 581 583.50 565Q569 549 549 549Q537 549 525 555Q439 598 354 598Q273 598 215 559Q201 549 201 530Q201 511 215 502L534 292Q595 252 595 175Q595 98 535 58Q449 1 340 1Q233 1 133 56Q106 71 106 99Q106 119 120.50 135Q135 151 155 151Q168 151 181 144Q257 101 338 101Q417 101 479 142Q496 153 496 176Q496 198 479 209L159 419Q105 455 105 529Q105 604 159 641Q243 698 356 698Q464 698 569 645Q598 631 598 601Z"  horiz-adv-x="700" vert-adv-y="1460"  />

      
      <glyph glyph-name="uni74" unicode="&#x74;" d="M300 700L450 700Q500 700 500 650Q500 600 450 600L300 600L300 50Q300 0 250 0Q200 0 200 50L200 600L150 600Q100 600 100 650Q100 700 150 700L200 700L200 950Q200 1000 250 1000Q300 1000 300 950L300 700Z"  horiz-adv-x="600" vert-adv-y="1460"  />

      
      <glyph glyph-name="uni75" unicode="&#x75;" d="M600 50Q600 0 550 0L300 0Q218 0 159 58.50Q100 117 100 200L100 650Q100 700 150 700Q200 700 200 650L200 200Q200 159 229.50 129.50Q259 100 300 100L500 100L500 650Q500 700 550 700Q600 700 600 650L600 50Z"  horiz-adv-x="700" vert-adv-y="1460"  />

      
      <glyph glyph-name="uni76" unicode="&#x76;" d="M597 634L397 34Q383-9 350-9Q317-9 303 34L103 634Q100 643 100 652Q100 700 152 700Q186 700 197 666L350 207L503 666Q514 700 548 700Q600 700 600 652Q600 643 597 634Z"  horiz-adv-x="700" vert-adv-y="1460"  />

      
      <glyph glyph-name="uni77" unicode="&#x77;" d="M801 652Q801 646 799 638L649 38Q637-9 601-9Q568-9 553 32L450 307L347 32Q332-9 299-9Q263-9 251 38L101 638Q99 646 99 652Q99 700 151 700Q189 700 199 662L310 219L403 468Q418 509 450 509Q482 509 497 468L590 219L701 662Q711 700 749 700Q801 700 801 652Z"  horiz-adv-x="900" vert-adv-y="1460"  />

      
      <glyph glyph-name="uni78" unicode="&#x78;" d="M601 50Q601 29 584.50 14Q568-1 548-1Q523-1 508 22L350 259L192 22Q177-1 152-1Q132-1 115.50 14Q99 29 99 50Q99 64 108 78L289 350L108 622Q99 636 99 650Q99 671 115.50 686Q132 701 152 701Q177 701 192 678L350 441L508 678Q523 701 548 701Q568 701 584.50 686Q601 671 601 650Q601 636 592 622L411 350L592 78Q601 64 601 50Z"  horiz-adv-x="700" vert-adv-y="1460"  />

      
      <glyph glyph-name="uni79" unicode="&#x79;" d="M591 652Q591 644 588 635L328-194Q295-300 190-300L140-300Q90-300 90-250Q90-200 140-200L189-200Q221-200 232-166L286 5L92 635Q89 644 89 652Q89 701 142 701Q177 701 188 665L338 174Q380 307 492 665Q503 701 539 701Q591 701 591 652Z"  horiz-adv-x="700" vert-adv-y="1460"  />

      
      <glyph glyph-name="uni7a" unicode="&#x7a;" d="M592 622L244 100L550 100Q600 100 600 50Q600 0 550 0L150 0Q95 0 95 40Q95 58 108 78L456 600L150 600Q100 600 100 650Q100 700 150 700L550 700Q605 700 605 660Q605 642 592 622Z"  horiz-adv-x="700" vert-adv-y="1460"  />

      
      <glyph glyph-name="uni7b" unicode="&#x7b;" d="M356-100Q294-100 250.50-56.50Q207-13 207 49L207 399Q207 450 157 450Q107 450 107 500Q107 550 157 550Q207 550 207 599L207 950Q207 1008 262 1056Q311 1100 357 1100Q407 1100 407 1050Q407 1000 357 1000Q342 1000 324.50 984.50Q307 969 307 950L307 599Q307 543 269 500Q307 455 307 399L307 49Q307 0 355 0Q357 0 358 0Q407 0 407-50Q407-100 356-100Z"  horiz-adv-x="500" vert-adv-y="1460"  />

      
      <glyph glyph-name="uni7c" unicode="&#x7c;" d="M200 50Q200 0 150 0Q100 0 100 50L100 950Q100 1000 150 1000Q200 1000 200 950L200 50Z"  horiz-adv-x="300" vert-adv-y="1460"  />

      
      <glyph glyph-name="uni7d" unicode="&#x7d;" d="M301 399L301 49Q301-13 257.50-56.50Q214-100 152-100L150-100Q101-99 101-50Q101 0 150 0Q151 0 152 0Q153 0 177 0Q201 0 201 49L201 399Q201 455 239 500Q201 543 201 599L201 950Q201 969 183.50 984.50Q166 1000 151 1000Q101 1000 101 1050Q101 1100 151 1100Q197 1100 246 1056Q301 1008 301 950L301 599Q301 550 351 550Q401 550 401 500Q401 450 351 450Q301 450 301 399Z"  horiz-adv-x="500" vert-adv-y="1460"  />

      
      <glyph glyph-name="uni7e" unicode="&#x7e;" d="M685 315Q619 249 525 249Q431 249 365 315Q328 352 275 352Q223 352 185 315Q170 300 150 300Q130 300 115 315Q100 330 100 350Q100 370 115 385Q181 452 274 452Q368 452 435 385Q471 349 524 349Q579 349 615 385Q631 401 650 401Q670 401 685.50 385.50Q701 370 701 350Q701 331 685 315Z"  horiz-adv-x="800" vert-adv-y="1460"  />

      
      <glyph glyph-name="uni201E" unicode="&#x201E;" d="M198 38L148-161Q139-198 102-198Q50-198 50-151Q50-144 52-137L102 62Q111 99 148 99Q200 99 200 52Q200 45 198 38M398 38L348-161Q339-198 302-198Q250-198 250-151Q250-144 252-137L302 62Q311 99 348 99Q400 99 400 52Q400 45 398 38Z"  horiz-adv-x="500" vert-adv-y="1460"  />

      
      <glyph glyph-name="uni2026" unicode="&#x2026;" d="M400 50Q400 100 450 100Q500 100 500 50Q500 0 450 0Q400 0 400 50M650 50Q650 100 700 100Q750 100 750 50Q750 0 700 0Q650 0 650 50M150 50Q150 100 200 100Q250 100 250 50Q250 0 200 0Q150 0 150 50Z"  horiz-adv-x="900" vert-adv-y="1460"  />

      
      <glyph glyph-name="uni040E" unicode="&#x040E;" d="M600 400L300 400Q217 400 158.50 458.50Q100 517 100 600L100 950Q100 1000 150 1000Q200 1000 200 950L200 600Q200 559 229.50 529.50Q259 500 300 500L600 500L600 950Q600 1000 650 1000Q700 1000 700 950L700 200Q700 117 641.50 58.50Q583 0 500 0L250 0Q200 0 200 50Q200 100 250 100L500 100Q541 100 570.50 129.50Q600 159 600 200L600 400M620 1300Q620 1217 561.50 1158.50Q503 1100 420 1100Q337 1100 278.50 1158.50Q220 1217 220 1300Q220 1350 270 1350Q320 1350 320 1300Q320 1259 349.50 1229.50Q379 1200 420 1200Q461 1200 490.50 1229.50Q520 1259 520 1300Q520 1350 570 1350Q620 1350 620 1300Z"  horiz-adv-x="800" vert-adv-y="1460"  />

      
      <glyph glyph-name="uni045E" unicode="&#x045E;" d="M500 0L300 0Q218 0 159 58.50Q100 117 100 200L100 650Q100 700 150 700Q200 700 200 650L200 200Q200 159 229.50 129.50Q259 100 300 100L500 100L500 650Q500 700 550 700Q600 700 600 650L600-100Q600-183 541.50-241.50Q483-300 400-300L200-300Q150-300 150-250Q150-200 200-200L400-200Q441-200 470.50-170.50Q500-141 500-100L500 0M550 1032Q550 949 491.50 890.50Q433 832 350 832Q267 832 208.50 890.50Q150 949 150 1032Q150 1082 200 1082Q250 1082 250 1032Q250 991 279.50 961.50Q309 932 350 932Q391 932 420.50 961.50Q450 991 450 1032Q450 1082 500 1082Q550 1082 550 1032Z"  horiz-adv-x="700" vert-adv-y="1460"  />

      
      <glyph glyph-name="uni0490" unicode="&#x0490;" d="M600 950Q600 930 585 915Q570 900 550 900L200 900L200 50Q200 0 150 0Q100 0 100 50L100 950Q100 970 115 985Q130 1000 150 1000L500 1000L500 1150Q500 1200 550 1200Q600 1200 600 1150L600 950Z"  horiz-adv-x="700" vert-adv-y="1460"  />

      
      <glyph glyph-name="unia7" unicode="&#xa7;" d="M260 800L190 884Q157 923 157 972Q157 1024 192.50 1062Q228 1100 284 1100L350 1100Q451 1100 531 1040Q552 1024 552 1001Q552 981 537 965Q522 949 502 949Q486 949 471 960Q417 1000 350 1000L284 1000Q256 1000 256 971Q256 959 264 950L536 627Q601 550 601 450Q601 371 559 303Q517 235 444 201L519 113Q550 76 550 30Q550-22 513.50-61Q477-100 421-100L350-100Q251-100 171-40Q150-24 150-1Q150 19 164.50 34.50Q179 50 199 50Q214 50 229 40Q287 0 350 0L421 0Q450 0 450 30Q450 40 443 48L166 372Q100 449 100 549Q100 628 143 697Q186 766 260 800M374 282Q432 297 467 346Q501 392 501 450Q501 514 460 563L329 718Q271 703 235.50 655Q200 607 200 549Q200 485 242 436L374 282Z"  horiz-adv-x="700" vert-adv-y="1460"  />

      
      <glyph glyph-name="uni0401" unicode="&#x0401;" d="M450 1200Q450 1250 500 1250Q550 1250 550 1200Q550 1150 500 1150Q450 1150 450 1200M150 1200Q150 1252 202 1252Q254 1252 254 1200Q254 1148 202 1148Q150 1148 150 1200M200 600L451 600Q501 600 501 550Q501 500 451 500L200 500L200 100L551 100Q601 100 601 50Q601 0 551 0L150 0Q100 0 100 47L100 950Q100 1000 150 1000L551 1000Q601 1000 601 950Q601 900 551 900L200 900L200 600Z"  horiz-adv-x="700" vert-adv-y="1460"  />

      
      <glyph glyph-name="uni0404" unicode="&#x0404;" d="M700 50Q700 0 650 0L350 0Q246 0 173 73Q100 146 100 250L100 750Q100 854 173 927Q246 1000 350 1000L650 1000Q700 1000 700 950Q700 900 650 900L350 900Q288 900 244 856Q200 812 200 750L200 600L450 600Q500 600 500 550Q500 500 450 500L200 500L200 250Q200 188 244 144Q288 100 350 100L650 100Q700 100 700 50Z"  horiz-adv-x="800" vert-adv-y="1460"  />

      
      <glyph glyph-name="uniab" unicode="&#xab;" d="M666 173Q677 159 677 143Q677 122 661 107Q645 92 625 92Q602 92 586 113L391 320Q380 334 380 350Q380 366 391 380L586 586Q602 607 625 607Q645 607 661 592Q677 577 677 556Q677 540 666 526L494 350L666 173M396 173Q407 159 407 143Q407 122 391 107Q375 92 355 92Q332 92 316 113L121 320Q110 334 110 350Q110 366 121 380L316 586Q332 607 355 607Q375 607 391 592Q407 577 407 556Q407 540 396 526L224 350L396 173Z"  horiz-adv-x="800" vert-adv-y="1460"  />

      
      <glyph glyph-name="uniac" unicode="&#xac;" d="M701 314Q701 264 651 264Q601 264 601 314L601 450L150 450Q100 450 100 500Q100 550 150 550L651 550Q701 550 701 500L701 314Z"  horiz-adv-x="800" vert-adv-y="1460"  />

      
      <glyph glyph-name="uniad" unicode="&#xad;" d="M499 300L150 300Q100 300 100 350Q100 400 150 400L499 400Q549 400 549 350Q549 300 499 300Z"  horiz-adv-x="649" vert-adv-y="1460"  />

      
      <glyph glyph-name="uni0407" unicode="&#x0407;" d="M200 50Q200 0 150 0Q100 0 100 50L100 950Q100 1000 150 1000Q200 1000 200 950L200 50M96 1232Q96 1179 43 1179Q-10 1179-10 1232Q-10 1286 43 1286Q65 1286 80.50 1270Q96 1254 96 1232M310 1232Q310 1179 257 1179Q204 1179 204 1232Q204 1286 257 1286Q279 1286 294.50 1270Q310 1254 310 1232Z"  horiz-adv-x="300" vert-adv-y="1460"  />

      
      <glyph glyph-name="unib0" unicode="&#xb0;" d="M500 800Q500 719 450 662Q395 600 300 600Q205 600 150 662Q100 719 100 800Q100 881 150 937Q205 1000 300 1000Q395 1000 450 937Q500 881 500 800M400 800Q400 841 375 869Q347 900 300 900Q253 900 226.50 870.50Q200 841 200 800Q200 759 225 731Q253 700 300 700Q347 700 375 731Q400 759 400 800Z"  horiz-adv-x="600" vert-adv-y="1460"  />

      
      <glyph glyph-name="unib1" unicode="&#xb1;" d="M400 550L400 400Q400 350 350 350Q300 350 300 400L300 550L150 550Q100 550 100 600Q100 650 150 650L300 650L300 800Q300 850 350 850Q400 850 400 800L400 650L550 650Q600 650 600 600Q600 550 550 550L400 550M550 100L150 100Q100 100 100 150Q100 200 150 200L550 200Q600 200 600 150Q600 100 550 100Z"  horiz-adv-x="700" vert-adv-y="1460"  />

      
      <glyph glyph-name="uni0406" unicode="&#x0406;" d="M200 50Q200 0 150 0Q100 0 100 50L100 950Q100 1000 150 1000Q200 1000 200 950L200 50Z"  horiz-adv-x="300" vert-adv-y="1460"  />

      
      <glyph glyph-name="uni0456" unicode="&#x0456;" d="M100 950Q100 1000 150 1000Q200 1000 200 950Q200 900 150 900Q100 900 100 950M200 50Q200 0 150 0Q100 0 100 50L100 650Q100 700 150 700Q200 700 200 650L200 50Z"  horiz-adv-x="300" vert-adv-y="1460"  />

      
      <glyph glyph-name="uni0491" unicode="&#x0491;" d="M500 650Q500 630 485 615Q470 600 450 600L200 600L200 50Q200 0 150 0Q100 0 100 50L100 650Q100 670 115 685Q130 700 150 700L400 700L400 800Q400 850 450 850Q500 850 500 800L500 650Z"  horiz-adv-x="600" vert-adv-y="1460"  />

      
      <glyph glyph-name="unib6" unicode="&#xb6;" d="M750 900L681 900L681-250Q681-300 631-300Q581-300 581-250L581 900L458 900L458-250Q458-300 408-300Q358-300 358-250L358 387Q247 402 173.50 488.50Q100 575 100 691Q100 826 175 909Q257 1000 408 1000L750 1000Q800 1000 800 950Q800 900 750 900Z"  horiz-adv-x="900" vert-adv-y="1460"  />

      
      <glyph glyph-name="unib7" unicode="&#xb7;" d="M200 350Q200 300 150 300Q100 300 100 350Q100 400 150 400Q200 400 200 350Z"  horiz-adv-x="300" vert-adv-y="1460"  />

      
      <glyph glyph-name="uni0451" unicode="&#x0451;" d="M450 950Q450 1000 500 1000Q550 1000 550 950Q550 900 500 900Q450 900 450 950M150 950Q150 1002 202 1002Q254 1002 254 950Q254 898 202 898Q150 898 150 950M200 300L200 200Q200 159 229.50 129.50Q259 100 300 100L550 100Q600 100 600 50Q600 0 550 0L300 0Q217 0 158.50 58.50Q100 117 100 200L100 500Q100 583 158.50 641.50Q217 700 300 700L400 700Q483 700 541.50 641.50Q600 583 600 500L600 350Q600 300 550 300L200 300M200 400L500 400L500 500Q500 541 470.50 570.50Q441 600 400 600L300 600Q259 600 229.50 570.50Q200 541 200 500L200 400Z"  horiz-adv-x="700" vert-adv-y="1460"  />

      
      <glyph glyph-name="uni2116" unicode="&#x2116;" d="M1000 650L1000 850Q1000 899 950 899Q900 899 900 850L900 650Q900 600 950 600Q1000 600 1000 650M700 50Q700-1 651-1Q621-1 606 26L200 757L200 50Q200 0 150 0Q100 0 100 50L100 950Q100 999 151 999Q180 999 194 974L600 243L600 950Q600 1000 650 1000Q700 1000 700 950L700 50M1100 650Q1100 579 1053 537Q1011 500 950 500Q889 500 847 537Q800 579 800 650L800 850Q800 920 847 962Q889 999 950 999Q1011 999 1053 962Q1100 920 1100 850L1100 650Z"  horiz-adv-x="1200" vert-adv-y="1460"  />

      
      <glyph glyph-name="uni0454" unicode="&#x0454;" d="M600 50Q600 0 550 0L300 0Q216 0 158 58.50Q100 117 100 200L100 500Q100 583 158 641.50Q216 700 300 700L550 700Q600 700 600 650Q600 600 550 600L300 600Q258 600 229 570.50Q200 541 200 500L200 400L350 400Q400 400 400 350Q400 300 350 300L200 300L200 200Q200 159 229 129.50Q258 100 300 100L550 100Q600 100 600 50Z"  horiz-adv-x="700" vert-adv-y="1460"  />

      
      <glyph glyph-name="unibb" unicode="&#xbb;" d="M399 320L204 113Q188 92 165 92Q145 92 129 107Q113 122 113 143Q113 159 124 173L296 350L124 526Q113 540 113 556Q113 577 129 592Q145 607 165 607Q188 607 204 586L399 380Q409 366 409 350Q409 334 399 320M669 320L474 113Q458 92 435 92Q415 92 399 107Q383 122 383 143Q383 159 394 173L566 350L394 526Q383 540 383 556Q383 577 399 592Q415 607 435 607Q458 607 474 586L669 380Q679 366 679 350Q679 334 669 320Z"  horiz-adv-x="800" vert-adv-y="1460"  />

      
      <glyph glyph-name="uni0457" unicode="&#x0457;" d="M200 50Q200 0 150 0Q100 0 100 50L100 650Q100 700 150 700Q200 700 200 650L200 50M96 964Q96 911 43 911Q-10 911-10 964Q-10 1018 43 1018Q65 1018 80.50 1002Q96 986 96 964M310 964Q310 911 257 911Q204 911 204 964Q204 1018 257 1018Q279 1018 294.50 1002Q310 986 310 964Z"  horiz-adv-x="300" vert-adv-y="1460"  />

      
      <glyph glyph-name="uni0410" unicode="&#x0410;" d="M604 353L457 794L309 353L604 353M275 251L203 35Q192 1 158 1Q106 1 106 49Q106 58 109 67L410 967Q424 1010 457 1010Q490 1010 504 967L804 67Q807 58 807 49Q807 1 755 1Q721 1 710 35L638 251L275 251Z"  horiz-adv-x="900" vert-adv-y="1460"  />

      
      <glyph glyph-name="uni0411" unicode="&#x0411;" d="M600 300Q600 383 541.50 441.50Q483 500 400 500L200 500L200 100L400 100Q483 100 541.50 158.50Q600 217 600 300M700 300Q700 176 612 88Q524 0 400 0L150 0Q130 0 115 15Q100 30 100 50L100 950Q100 970 115 985Q130 1000 150 1000L600 1000Q650 1000 650 950Q650 900 600 900L200 900L200 600L400 600Q524 600 612 512Q700 424 700 300Z"  horiz-adv-x="800" vert-adv-y="1460"  />

      
      <glyph glyph-name="uni0412" unicode="&#x0412;" d="M725 300Q725 176 637 88Q549 0 425 0L125 0Q103 0 89 14Q75 28 75 50L75 950Q75 970 90 985Q105 1000 125 1000L425 1000Q528 1000 601.50 926.50Q675 853 675 750Q675 631 582 555Q725 467 725 300M575 750Q575 812 531 856Q487 900 425 900L175 900L175 600L425 600Q487 600 531 644Q575 688 575 750M625 300Q625 383 566.50 441.50Q508 500 425 500L175 500L175 100L425 100Q508 100 566.50 158.50Q625 217 625 300Z"  horiz-adv-x="800" vert-adv-y="1460"  />

      
      <glyph glyph-name="uni0413" unicode="&#x0413;" d="M550 900L200 900L200 50Q200 0 150 0Q100 0 100 50L100 950Q100 1000 150 1000L550 1000Q600 1000 600 950Q600 900 550 900Z"  horiz-adv-x="700" vert-adv-y="1460"  />

      
      <glyph glyph-name="uni0414" unicode="&#x0414;" d="M600 100L600 900L395 900L305 100L600 100M205 100L300 956Q305 1000 350 1000L650 1000Q700 1000 700 950L700 100L750 100Q800 100 800 50L800-50Q800-100 750-100Q700-100 700-50L700 0L200 0L200-50Q200-100 150-100Q100-100 100-50L100 50Q100 100 150 100L205 100Z"  horiz-adv-x="900" vert-adv-y="1460"  />

      
      <glyph glyph-name="uni0415" unicode="&#x0415;" d="M200 600L451 600Q501 600 501 550Q501 500 451 500L200 500L200 100L551 100Q601 100 601 50Q601 0 551 0L150 0Q100 0 100 47L100 950Q100 1000 150 1000L551 1000Q601 1000 601 950Q601 900 551 900L200 900L200 600Z"  horiz-adv-x="700" vert-adv-y="1460"  />

      
      <glyph glyph-name="uni0416" unicode="&#x0416;" d="M550 609L809 979Q824 1001 849 1001Q869 1001 885 986Q901 971 901 950Q901 935 891 921L629 547L894 74Q901 61 901 48Q901 28 885 14Q869 0 849 0Q821 0 806 26L550 483L550 50Q550 0 500 0Q450 0 450 50L450 483L194 26Q179 0 151 0Q131 0 115 14Q99 28 99 48Q99 61 106 74L371 547L109 921Q99 935 99 950Q99 971 115 986Q131 1001 151 1001Q176 1001 191 979L450 609L450 950Q450 1000 500 1000Q550 1000 550 950L550 609Z"  horiz-adv-x="1000" vert-adv-y="1460"  />

      
      <glyph glyph-name="uni0417" unicode="&#x0417;" d="M600 250Q600 146 527 73Q454 0 350 0L325 0Q180 0 107 125Q99 139 99 151Q99 171 115.50 186Q132 201 152 201Q178 201 193 175Q237 100 325 100L350 100Q412 100 456 144Q500 188 500 250L500 350Q500 412 456 456Q412 500 350 500L250 500Q200 500 200 550Q200 600 250 600L394 600Q441 612 470.50 650.50Q500 689 500 737Q500 805 452 852.50Q404 900 336 900Q277 900 232 862Q216 849 200 849Q180 849 164.50 865Q149 881 149 901Q149 922 168 938Q242 1000 336 1000Q446 1000 523 923.50Q600 847 600 737Q600 617 506 545Q600 470 600 350L600 250Z"  horiz-adv-x="700" vert-adv-y="1460"  />

      
      <glyph glyph-name="uni0418" unicode="&#x0418;" d="M700 50Q700 0 650 0Q600 0 600 50L600 757L194 26Q175-7 146-7Q100-7 100 50L100 950Q100 1000 150 1000Q200 1000 200 950L200 243L606 974Q625 1007 654 1007Q700 1007 700 950L700 50Z"  horiz-adv-x="800" vert-adv-y="1460"  />

      
      <glyph glyph-name="uni0419" unicode="&#x0419;" d="M700 50Q700 0 650 0Q600 0 600 50L600 757L194 26Q175-7 146-7Q100-7 100 50L100 950Q100 1000 150 1000Q200 1000 200 950L200 243L606 974Q625 1007 654 1007Q700 1007 700 950L700 50M500 1100L300 1100Q250 1100 250 1150Q250 1200 300 1200L500 1200Q550 1200 550 1150Q550 1100 500 1100Z"  horiz-adv-x="800" vert-adv-y="1460"  />

      
      <glyph glyph-name="uni041A" unicode="&#x041A;" d="M707 48Q707 28 691 13.50Q675-1 655-1Q627-1 612 26L319 548L200 431L200 50Q200 0 150 0Q100 0 100 50L100 950Q100 999 150 999Q200 999 200 950L200 567L621 985Q636 1000 655 1000Q675 1000 690.50 984.50Q706 969 706 949Q706 930 691 915L393 618L700 74Q707 61 707 48Z"  horiz-adv-x="800" vert-adv-y="1460"  />

      
      <glyph glyph-name="uni041B" unicode="&#x041B;" d="M700 50Q700 0 650 0Q600 0 600 50L600 900L438 900L198 37Q188 0 151 0Q100 0 100 48Q100 55 102 63L352 963Q362 1000 400 1000L650 1000Q700 1000 700 950L700 50Z"  horiz-adv-x="800" vert-adv-y="1460"  />

      
      <glyph glyph-name="uni041C" unicode="&#x041C;" d="M801 50Q801 0 751 0Q701 0 701 50L701 764L494 418Q475 387 451 387Q427 387 408 418L200 764L200 50Q200 0 150 0Q100 0 100 50L100 945Q100 1003 145 1003Q174 1003 193 971L451 542L708 971Q727 1003 755 1003Q801 1003 801 945L801 50Z"  horiz-adv-x="900" vert-adv-y="1460"  />

      
      <glyph glyph-name="uni041D" unicode="&#x041D;" d="M600 600L600 952Q600 1002 650 1002Q700 1002 700 952L700 52Q700 1 649 1Q600 1 600 50L600 500L200 500L200 50Q200 0 150 0Q100 0 100 50L100 950Q100 1000 150 1000Q200 1000 200 950L200 600L600 600Z"  horiz-adv-x="800" vert-adv-y="1460"  />

      
      <glyph glyph-name="uni041E" unicode="&#x041E;" d="M700 250Q700 146 626.50 73Q553 0 450 0L350 0Q246 0 173 73Q100 146 100 250L100 750Q100 853 173 926.50Q246 1000 350 1000L450 1000Q553 1000 626.50 926.50Q700 853 700 750L700 250M600 250L600 750Q600 812 556 856Q512 900 450 900L350 900Q288 900 244 856Q200 812 200 750L200 250Q200 188 244 144Q288 100 350 100L450 100Q512 100 556 144Q600 188 600 250Z"  horiz-adv-x="800" vert-adv-y="1460"  />

      
      <glyph glyph-name="uni041F" unicode="&#x041F;" d="M700 50Q700 0 650 0Q600 0 600 50L600 900L200 900L200 50Q200 0 150 0Q100 0 100 50L100 950Q100 1000 150 1000L650 1000Q700 1000 700 950L700 50Z"  horiz-adv-x="800" vert-adv-y="1460"  />

      
      <glyph glyph-name="uni0420" unicode="&#x0420;" d="M600 700Q600 783 541.50 841.50Q483 900 400 900L200 900L200 500L400 500Q483 500 541.50 558.50Q600 617 600 700M700 700Q700 576 612 488Q524 400 400 400L200 400L200 50Q200 0 150 0Q100 0 100 50L100 950Q100 970 115 985Q130 1000 150 1000L400 1000Q524 1000 612 912Q700 824 700 700Z"  horiz-adv-x="800" vert-adv-y="1460"  />

      
      <glyph glyph-name="uni0421" unicode="&#x0421;" d="M550 0L350 0Q246 0 173 73Q100 146 100 250L100 750Q100 853 173 926.50Q246 1000 350 1000L550 1000Q600 1000 600 950Q600 900 550 900L350 900Q288 900 244 856Q200 812 200 750L200 250Q200 188 244 144Q288 100 350 100L550 100Q600 100 600 50Q600 0 550 0Z"  horiz-adv-x="700" vert-adv-y="1460"  />

      
      <glyph glyph-name="uni0422" unicode="&#x0422;" d="M350 900L150 900Q100 900 100 950Q100 1000 150 1000L650 1000Q700 1000 700 950Q700 900 650 900L450 900L450 50Q450 0 400 0Q350 0 350 50L350 900Z"  horiz-adv-x="800" vert-adv-y="1460"  />

      
      <glyph glyph-name="uni0423" unicode="&#x0423;" d="M600 400L300 400Q217 400 158.50 458.50Q100 517 100 600L100 950Q100 1000 150 1000Q200 1000 200 950L200 600Q200 559 229.50 529.50Q259 500 300 500L600 500L600 950Q600 1000 650 1000Q700 1000 700 950L700 200Q700 117 641.50 58.50Q583 0 500 0L250 0Q200 0 200 50Q200 100 250 100L500 100Q541 100 570.50 129.50Q600 159 600 200L600 400Z"  horiz-adv-x="800" vert-adv-y="1460"  />

      
      <glyph glyph-name="uni0424" unicode="&#x0424;" d="M900 500Q900 375 812 287.50Q724 200 600 200L550 200L550 50Q550 0 500 0Q450 0 450 50L450 200L400 200Q275 200 187.50 287.50Q100 375 100 500L100 550Q100 674 187.50 762Q275 850 400 850L450 850L450 950Q450 1000 500 1000Q550 1000 550 950L550 850L600 850Q724 850 812 762Q900 674 900 550L900 500M800 500L800 550Q800 632 741 691Q682 750 600 750L550 750L550 300L600 300Q682 300 741 358.50Q800 417 800 500M450 300L450 750L400 750Q317 750 258.50 691Q200 632 200 550L200 500Q200 417 258.50 358.50Q317 300 400 300L450 300Z"  horiz-adv-x="1000" vert-adv-y="1460"  />

      
      <glyph glyph-name="uni0425" unicode="&#x0425;" d="M450 591L708 978Q723 1001 748 1001Q769 1001 785 986Q801 971 801 951Q801 936 792 922L511 500L792 78Q801 64 801 49Q801 29 785 14Q769-1 748-1Q723-1 708 22L450 409L192 22Q177-1 152-1Q131-1 115 14Q99 29 99 49Q99 64 108 78L389 500L108 922Q99 936 99 951Q99 971 115 986Q131 1001 152 1001Q177 1001 192 978L450 591Z"  horiz-adv-x="900" vert-adv-y="1460"  />

      
      <glyph glyph-name="uni0426" unicode="&#x0426;" d="M600 100L600 950Q600 1000 650 1000Q700 1000 700 950L700 100L750 100Q800 100 800 50L800-100Q800-150 750-150Q700-150 700-100L700 0L150 0Q100 0 100 50L100 950Q100 1000 150 1000Q200 1000 200 950L200 100L600 100Z"  horiz-adv-x="900" vert-adv-y="1460"  />

      
      <glyph glyph-name="uni0427" unicode="&#x0427;" d="M600 500L600 950Q600 1000 650 1000Q700 1000 700 950L700 50Q700 0 650 0Q600 0 600 50L600 400L300 400Q217 400 158.50 458.50Q100 517 100 600L100 950Q100 1000 150 1000Q200 1000 200 950L200 600Q200 559 229.50 529.50Q259 500 300 500L600 500Z"  horiz-adv-x="800" vert-adv-y="1460"  />

      
      <glyph glyph-name="uni0428" unicode="&#x0428;" d="M550 100L800 100L800 950Q800 1000 850 1000Q900 1000 900 950L900 50Q900 0 850 0L150 0Q100 0 100 50L100 950Q100 1000 150 1000Q200 1000 200 950L200 100L450 100L450 950Q450 1000 500 1000Q550 1000 550 950L550 100Z"  horiz-adv-x="1000" vert-adv-y="1460"  />

      
      <glyph glyph-name="uni0429" unicode="&#x0429;" d="M900 0L150 0Q100 0 100 50L100 950Q100 1000 150 1000Q200 1000 200 950L200 100L450 100L450 950Q450 1000 500 1000Q550 1000 550 950L550 100L800 100L800 950Q800 1000 850 1000Q900 1000 900 950L900 100L950 100Q1000 100 1000 50L1000-100Q1000-150 950-150Q900-150 900-100L900 0Z"  horiz-adv-x="1100" vert-adv-y="1460"  />

      
      <glyph glyph-name="uni042A" unicode="&#x042A;" d="M900 250Q900 146 827 73Q754 0 650 0L350 0Q330 0 315 15Q300 30 300 50L300 900L150 900Q100 900 100 950Q100 1000 150 1000L350 1000Q370 1000 385 985Q400 970 400 950L400 600L650 600Q754 600 827 527Q900 454 900 350L900 250M800 250L800 350Q800 412 756 456Q712 500 650 500L400 500L400 100L650 100Q712 100 756 144Q800 188 800 250Z"  horiz-adv-x="1000" vert-adv-y="1460"  />

      
      <glyph glyph-name="uni042B" unicode="&#x042B;" d="M500 250L500 350Q500 412 456 456Q412 500 350 500L200 500L200 100L350 100Q412 100 456 144Q500 188 500 250M600 250Q600 146 527 73Q454 0 350 0L150 0Q130 0 115 15Q100 30 100 50L100 950Q100 1000 150 1000Q200 1000 200 950L200 600L350 600Q454 600 527 527Q600 454 600 350L600 250M800 50Q800 0 750 0Q700 0 700 50L700 950Q700 1000 750 1000Q800 1000 800 950L800 50Z"  horiz-adv-x="900" vert-adv-y="1460"  />

      
      <glyph glyph-name="uni042C" unicode="&#x042C;" d="M600 250L600 350Q600 412 556 456Q512 500 450 500L200 500L200 100L450 100Q512 100 556 144Q600 188 600 250M700 250Q700 146 627 73Q554 0 450 0L150 0Q130 0 115 15Q100 30 100 50L100 950Q100 1000 150 1000Q200 1000 200 950L200 600L450 600Q554 600 627 527Q700 454 700 350L700 250Z"  horiz-adv-x="800" vert-adv-y="1460"  />

      
      <glyph glyph-name="uni042D" unicode="&#x042D;" d="M700 250Q700 146 627 73Q554 0 450 0L150 0Q100 0 100 50Q100 100 150 100L450 100Q512 100 556 144Q600 188 600 250L600 500L350 500Q300 500 300 550Q300 600 350 600L600 600L600 750Q600 812 556 856Q512 900 450 900L150 900Q100 900 100 950Q100 1000 150 1000L450 1000Q554 1000 627 927Q700 854 700 750L700 250Z"  horiz-adv-x="800" vert-adv-y="1460"  />

      
      <glyph glyph-name="uni042E" unicode="&#x042E;" d="M200 600L300 600L300 800Q300 883 358.50 941.50Q417 1000 500 1000L600 1000Q683 1000 741.50 941.50Q800 883 800 800L800 200Q800 117 741.50 58.50Q683 0 600 0L500 0Q417 0 358.50 58.50Q300 117 300 200L300 500L200 500L200 50Q200 0 150 0Q100 0 100 50L100 950Q100 1000 150 1000Q200 1000 200 950L200 600M700 200L700 800Q700 841 670.50 870.50Q641 900 600 900L500 900Q459 900 429.50 870.50Q400 841 400 800L400 200Q400 159 429.50 129.50Q459 100 500 100L600 100Q641 100 670.50 129.50Q700 159 700 200Z"  horiz-adv-x="900" vert-adv-y="1460"  />

      
      <glyph glyph-name="uni042F" unicode="&#x042F;" d="M700 50Q700 0 650 0Q600 0 600 50L600 400L428 400L192 23Q177-1 151-1Q131-1 115 14Q99 29 99 49Q99 62 108 76L314 407Q221 428 160.50 503Q100 578 100 675L100 725Q100 839 180.50 919.50Q261 1000 375 1000L650 1000Q670 1000 685 985Q700 970 700 950L700 50M600 500L600 900L375 900Q303 900 251.50 848.50Q200 797 200 725L200 675Q200 603 251.50 551.50Q303 500 375 500L600 500Z"  horiz-adv-x="800" vert-adv-y="1460"  />

      
      <glyph glyph-name="uni0430" unicode="&#x0430;" d="M549 66Q489 0 400 0L300 0Q218 0 159 58.50Q100 117 100 200L100 500Q100 583 159 641.50Q218 700 300 700L550 700Q600 700 600 650L600 201Q600 126 670 96Q701 83 701 52Q701 31 687 15Q673-1 652-1Q641-1 630 4Q580 26 549 66M500 200L500 600L300 600Q259 600 229.50 570.50Q200 541 200 500L200 200Q200 159 229.50 129.50Q259 100 300 100L400 100Q441 100 470.50 129.50Q500 159 500 200Z"  horiz-adv-x="700" vert-adv-y="1460"  />

      
      <glyph glyph-name="uni0431" unicode="&#x0431;" d="M339 700L115 914Q97 932 97 955Q97 1000 150 1000L550 1000Q600 1000 600 950Q600 900 550 900L275 900L540 647Q548 640 552 631Q600 575 600 500L600 200Q600 117 541.50 58.50Q483 0 400 0L300 0Q218 0 159 58.50Q100 117 100 200L100 500Q100 583 159 641.50Q218 700 300 700L339 700M500 200L500 500Q500 541 470.50 570.50Q441 600 400 600L300 600Q259 600 229.50 570.50Q200 541 200 500L200 200Q200 159 229.50 129.50Q259 100 300 100L400 100Q441 100 470.50 129.50Q500 159 500 200Z"  horiz-adv-x="700" vert-adv-y="1460"  />

      
      <glyph glyph-name="uni0432" unicode="&#x0432;" d="M400 697Q497 697 551 640Q600 587 600 500L600 200Q600 117 541.50 58.50Q483 0 400 0L300 0Q218 0 159 58.50Q100 117 100 200L100 820Q100 905 156 955Q207 1000 281 1000Q354 1000 404 956Q460 906 460 821Q460 737 400 697M200 665Q239 690 300 734Q360 782 360 820Q360 858 335 880Q312 899 280 899Q247 899 225 880Q200 858 200 820L200 665M500 200L500 500Q500 541 470.50 570.50Q441 600 400 600L300 600Q259 600 229.50 570.50Q200 541 200 500L200 200Q200 159 229.50 129.50Q259 100 300 100L400 100Q441 100 470.50 129.50Q500 159 500 200Z"  horiz-adv-x="700" vert-adv-y="1460"  />

      
      <glyph glyph-name="uni0433" unicode="&#x0433;" d="M574 46Q488 0 364 0Q303 0 232 11Q174 20 138 65Q105 107 105 161Q105 233 160 280L479 499Q494 513 494 530Q494 568 446 582Q395 597 331 597Q228 597 180 560Q165 549 149 549Q129 549 114 564.50Q99 580 99 601Q99 624 120 640Q191 695 340 695Q416 695 473.50 678Q531 661 564 621Q597 581 597 533Q597 469 540 421L221 201Q203 186 203 162Q203 116 247 109Q310 99 363 99Q461 99 526 134Q539 141 551 141Q572 141 586.50 125Q601 109 601 88Q601 60 574 46Z"  horiz-adv-x="700" vert-adv-y="1460"  />

      
      <glyph glyph-name="uni0434" unicode="&#x0434;" d="M500 700L500 800Q500 841 470.50 870.50Q441 900 400 900L200 900Q150 900 150 950Q150 1000 200 1000L400 1000Q483 1000 541.50 941.50Q600 883 600 800L600 200Q600 117 541.50 58.50Q483 0 400 0L300 0Q218 0 159 58.50Q100 117 100 200L100 500Q100 583 159 641.50Q218 700 300 700L500 700M500 600L300 600Q259 600 229.50 570.50Q200 541 200 500L200 200Q200 159 229.50 129.50Q259 100 300 100L400 100Q441 100 470.50 129.50Q500 159 500 200L500 600Z"  horiz-adv-x="700" vert-adv-y="1460"  />

      
      <glyph glyph-name="uni0435" unicode="&#x0435;" d="M200 300L200 200Q200 159 229.50 129.50Q259 100 300 100L550 100Q600 100 600 50Q600 0 550 0L300 0Q217 0 158.50 58.50Q100 117 100 200L100 500Q100 583 158.50 641.50Q217 700 300 700L400 700Q483 700 541.50 641.50Q600 583 600 500L600 350Q600 300 550 300L200 300M200 400L500 400L500 500Q500 541 470.50 570.50Q441 600 400 600L300 600Q259 600 229.50 570.50Q200 541 200 500L200 400Z"  horiz-adv-x="700" vert-adv-y="1460"  />

      
      <glyph glyph-name="uni0436" unicode="&#x0436;" d="M791 49Q791 28 775 13.50Q759-1 738-1Q713-1 698 22L513 300L490 300L490 50Q490 0 440 0Q390 0 390 50L390 300L367 300L182 22Q167-1 142-1Q121-1 105 13.50Q89 28 89 49Q89 64 98 78L279 350L98 622Q89 636 89 651Q89 672 105 686.50Q121 701 142 701Q167 701 182 678L367 400L390 400L390 650Q390 700 440 700Q490 700 490 650L490 400L513 400L698 678Q713 701 738 701Q759 701 775 686.50Q791 672 791 651Q791 636 782 622L601 350L782 78Q791 64 791 49Z"  horiz-adv-x="900" vert-adv-y="1460"  />

      
      <glyph glyph-name="uni0437" unicode="&#x0437;" d="M363 300L300 300Q250 300 250 350Q250 400 300 400L350 400Q397 400 425 431Q450 459 450 500Q450 541 425 569Q397 600 350 600L300 600Q232 600 180 560Q165 549 149 549Q129 549 114 564.50Q99 580 99 601Q99 624 120 640Q198 700 300 700L350 700Q444 700 500 638Q550 581 550 500Q550 408 487 350Q550 292 550 200Q550 118 500 62Q444 0 350 0L300 0Q198 0 120 60Q99 76 99 99Q99 120 114 135.50Q129 151 149 151Q165 151 180 140Q232 100 300 100L350 100Q397 100 425 132Q450 160 450 201Q450 291 363 300Z"  horiz-adv-x="650" vert-adv-y="1460"  />

      
      <glyph glyph-name="uni0438" unicode="&#x0438;" d="M600 50Q600 0 550 0L300 0Q218 0 159 58.50Q100 117 100 200L100 650Q100 700 150 700Q200 700 200 650L200 200Q200 159 229.50 129.50Q259 100 300 100L500 100L500 650Q500 700 550 700Q600 700 600 650L600 50Z"  horiz-adv-x="700" vert-adv-y="1460"  />

      
      <glyph glyph-name="uni0439" unicode="&#x0439;" d="M450 900L250 900Q200 900 200 950Q200 1000 250 1000L450 1000Q500 1000 500 950Q500 900 450 900M600 50Q600 0 550 0L300 0Q218 0 159 58.50Q100 117 100 200L100 650Q100 700 150 700Q200 700 200 650L200 200Q200 159 229.50 129.50Q259 100 300 100L500 100L500 650Q500 700 550 700Q600 700 600 650L600 50Z"  horiz-adv-x="700" vert-adv-y="1460"  />

      
      <glyph glyph-name="uni043A" unicode="&#x043A;" d="M302 327Q272 296 190 210L190 50Q190 0 140 0Q90 0 90 50L90 650Q90 700 140 700Q190 700 190 650L190 355L507 688Q521 703 539 703Q559 703 574 686.50Q589 670 589 649Q589 628 573 612L372 401L578 82Q589 66 589 49Q589 28 573 13Q557-2 538-2Q515-2 502 18L302 327Z"  horiz-adv-x="700" vert-adv-y="1460"  />

      
      <glyph glyph-name="uni043B" unicode="&#x043B;" d="M600 50Q600 0 550 0Q500 0 500 50L500 600L385 600L198 34Q187 0 153 0Q101 0 101 48Q101 57 104 66L302 666Q313 700 349 700L550 700Q600 700 600 650L600 50Z"  horiz-adv-x="700" vert-adv-y="1460"  />

      
      <glyph glyph-name="uni043C" unicode="&#x043C;" d="M700 50Q700 0 650 0Q600 0 600 50L600 494L441 271Q422 244 400 244Q378 244 359 271L200 494L200 50Q200 0 150 0Q100 0 100 50L100 650Q100 708 144 708Q170 708 191 679L400 386L609 679Q630 708 656 708Q700 708 700 650L700 50Z"  horiz-adv-x="800" vert-adv-y="1460"  />

      
      <glyph glyph-name="uni043D" unicode="&#x043D;" d="M500 400L500 650Q500 700 550 700Q600 700 600 650L600 50Q600 0 550 0Q500 0 500 50L500 300L200 300L200 50Q200 0 150 0Q100 0 100 50L100 650Q100 700 150 700Q200 700 200 650L200 400L500 400Z"  horiz-adv-x="700" vert-adv-y="1460"  />

      
      <glyph glyph-name="uni043E" unicode="&#x043E;" d="M500 220L500 480Q500 529 464.50 564.50Q429 600 380 600L320 600Q270 600 235 564.50Q200 529 200 480L200 220Q200 170 235 135Q270 100 320 100L380 100Q429 100 464.50 135Q500 170 500 220M600 220Q600 128 535.50 64Q471 0 380 0L320 0Q230 0 165 64.50Q100 129 100 220L100 480Q100 571 165 635.50Q230 700 320 700L380 700Q471 700 535.50 635.50Q600 571 600 480L600 220Z"  horiz-adv-x="700" vert-adv-y="1460"  />

      
      <glyph glyph-name="uni043F" unicode="&#x043F;" d="M600 50Q600 0 550 0Q500 0 500 50L500 500Q500 541 470.50 570.50Q441 600 400 600L200 600L200 50Q200 0 150 0Q100 0 100 50L100 650Q100 700 150 700L400 700Q483 700 541.50 641.50Q600 583 600 500L600 50Z"  horiz-adv-x="700" vert-adv-y="1460"  />

      
      <glyph glyph-name="uni0440" unicode="&#x0440;" d="M200 0L200-250Q200-300 150-300Q100-300 100-250L100 650Q100 700 150 700L400 700Q483 700 541.50 641.50Q600 583 600 500L600 200Q600 117 541.50 58.50Q483 0 400 0L200 0M200 100L400 100Q441 100 470.50 129.50Q500 159 500 200L500 500Q500 541 470.50 570.50Q441 600 400 600L200 600L200 100Z"  horiz-adv-x="700" vert-adv-y="1460"  />

      
      <glyph glyph-name="uni0441" unicode="&#x0441;" d="M450 0L300 0Q218 0 159 58.50Q100 117 100 200L100 500Q100 583 159 641.50Q218 700 300 700L450 700Q500 700 500 650Q500 600 450 600L300 600Q259 600 229.50 570.50Q200 541 200 500L200 200Q200 159 229.50 129.50Q259 100 300 100L450 100Q500 100 500 50Q500 0 450 0Z"  horiz-adv-x="600" vert-adv-y="1460"  />

      
      <glyph glyph-name="uni0442" unicode="&#x0442;" d="M400 600L200 600L200 50Q200 0 150 0Q100 0 100 50L100 650Q100 700 150 700L600 700Q683 700 741.50 641.50Q800 583 800 500L800 50Q800 0 750 0Q700 0 700 50L700 500Q700 541 670.50 570.50Q641 600 600 600L500 600L500 50Q500 0 450 0Q400 0 400 50L400 600Z"  horiz-adv-x="900" vert-adv-y="1460"  />

      
      <glyph glyph-name="uni0443" unicode="&#x0443;" d="M500 0L300 0Q218 0 159 58.50Q100 117 100 200L100 650Q100 700 150 700Q200 700 200 650L200 200Q200 159 229.50 129.50Q259 100 300 100L500 100L500 650Q500 700 550 700Q600 700 600 650L600-100Q600-183 541.50-241.50Q483-300 400-300L200-300Q150-300 150-250Q150-200 200-200L400-200Q441-200 470.50-170.50Q500-141 500-100L500 0Z"  horiz-adv-x="700" vert-adv-y="1460"  />

      
      <glyph glyph-name="uni0444" unicode="&#x0444;" d="M500 700Q625 699 712.50 611.50Q800 524 800 400L800 300Q800 175 712.50 88Q625 1 500 0L500-250Q500-300 450-300Q400-300 400-250L400 0Q275 1 187.50 88.50Q100 176 100 300L100 400Q100 524 187.50 611.50Q275 699 400 700L400 850Q400 900 450 900Q500 900 500 850L500 700M400 100L400 600Q317 599 258.50 540.50Q200 482 200 400L200 300Q200 218 258.50 159.50Q317 101 400 100M500 600L500 100Q583 101 641.50 159Q700 217 700 300L700 400Q700 482 641.50 540.50Q583 599 500 600Z"  horiz-adv-x="900" vert-adv-y="1460"  />

      
      <glyph glyph-name="uni0445" unicode="&#x0445;" d="M601 50Q601 29 584.50 14Q568-1 548-1Q523-1 508 22L350 259L192 22Q177-1 152-1Q132-1 115.50 14Q99 29 99 50Q99 64 108 78L289 350L108 622Q99 636 99 650Q99 671 115.50 686Q132 701 152 701Q177 701 192 678L350 441L508 678Q523 701 548 701Q568 701 584.50 686Q601 671 601 650Q601 636 592 622L411 350L592 78Q601 64 601 50Z"  horiz-adv-x="700" vert-adv-y="1460"  />

      
      <glyph glyph-name="uni0446" unicode="&#x0446;" d="M700-40Q700-90 650-90Q600-90 600-40L600 0L300 0Q217 0 158.50 58.50Q100 117 100 200L100 650Q100 700 150 700Q200 700 200 650L200 200Q200 159 229.50 129.50Q259 100 300 100L500 100L500 650Q500 700 550 700Q600 700 600 650L600 100L650 100Q700 100 700 50L700-40Z"  horiz-adv-x="800" vert-adv-y="1460"  />

      
      <glyph glyph-name="uni0447" unicode="&#x0447;" d="M500 400L500 650Q500 700 550 700Q600 700 600 650L600 50Q600 0 550 0Q500 0 500 50L500 300L300 300Q218 300 159 358.50Q100 417 100 500L100 650Q100 700 150 700Q200 700 200 650L200 500Q200 459 229.50 429.50Q259 400 300 400L500 400Z"  horiz-adv-x="700" vert-adv-y="1460"  />

      
      <glyph glyph-name="uni0448" unicode="&#x0448;" d="M500 100L700 100L700 650Q700 700 750 700Q800 700 800 650L800 50Q800 0 750 0L300 0Q218 0 159 58.50Q100 117 100 200L100 650Q100 700 150 700Q200 700 200 650L200 200Q200 159 229.50 129.50Q259 100 300 100L400 100L400 650Q400 700 450 700Q500 700 500 650L500 100Z"  horiz-adv-x="900" vert-adv-y="1460"  />

      
      <glyph glyph-name="uni0449" unicode="&#x0449;" d="M500 100L700 100L700 650Q700 700 750 700Q800 700 800 650L800 100L850 100Q900 100 900 50L900-50Q900-100 850-100Q800-100 800-50L800 0L300 0Q217 0 158.50 58.50Q100 117 100 200L100 650Q100 700 150 700Q200 700 200 650L200 200Q200 159 229.50 129.50Q259 100 300 100L400 100L400 650Q400 700 450 700Q500 700 500 650L500 100Z"  horiz-adv-x="1000" vert-adv-y="1460"  />

      
      <glyph glyph-name="uni044A" unicode="&#x044A;" d="M250 400L450 400Q545 400 600 337Q650 281 650 200Q650 119 600 62Q545 0 450 0L200 0Q150 0 150 50L150 600L100 600Q50 600 50 650Q50 700 100 700L200 700Q250 700 250 650L250 400M250 300L250 100L450 100Q497 100 525 131Q550 159 550 200Q550 241 525 269Q497 300 450 300L250 300Z"  horiz-adv-x="750" vert-adv-y="1460"  />

      
      <glyph glyph-name="uni044B" unicode="&#x044B;" d="M200 400L300 400Q395 400 450 337Q500 281 500 200Q500 119 450 62Q395 0 300 0L150 0Q100 0 100 50L100 650Q100 700 150 700Q200 700 200 650L200 400M200 300L200 100L300 100Q347 100 375 131Q400 159 400 200Q400 241 375 269Q347 300 300 300L200 300M700 50Q700 0 650 0Q600 0 600 50L600 650Q600 700 650 700Q700 700 700 650L700 50Z"  horiz-adv-x="800" vert-adv-y="1460"  />

      
      <glyph glyph-name="uni044C" unicode="&#x044C;" d="M200 400L400 400Q495 400 550 337Q600 281 600 200Q600 119 550 62Q495 0 400 0L150 0Q100 0 100 50L100 650Q100 700 150 700Q200 700 200 650L200 400M200 300L200 100L400 100Q447 100 475 131Q500 159 500 200Q500 241 475 269Q447 300 400 300L200 300Z"  horiz-adv-x="700" vert-adv-y="1460"  />

      
      <glyph glyph-name="uni044D" unicode="&#x044D;" d="M500 300L350 300Q300 300 300 350Q300 400 350 400L500 400L500 500Q500 541 470.50 570.50Q441 600 400 600L150 600Q100 600 100 650Q100 700 150 700L400 700Q483 700 541.50 641.50Q600 583 600 500L600 200Q600 117 541.50 58.50Q483 0 400 0L150 0Q100 0 100 50Q100 100 150 100L400 100Q441 100 470.50 129.50Q500 159 500 200L500 300Z"  horiz-adv-x="700" vert-adv-y="1460"  />

      
      <glyph glyph-name="uni044E" unicode="&#x044E;" d="M200 400L300 400L300 530Q300 600 349.50 650Q399 700 470 700L530 700Q601 700 650.50 650.50Q700 601 700 530L700 170Q700 99 650.50 49.50Q601 0 530 0L470 0Q399 0 349.50 49.50Q300 99 300 170L300 300L200 300L200 50Q200 0 150 0Q100 0 100 50L100 650Q100 700 150 700Q200 700 200 650L200 400M600 170L600 530Q600 559 579.50 579.50Q559 600 530 600L470 600Q441 600 420.50 579Q400 558 400 530L400 170Q400 141 420.50 120.50Q441 100 470 100L530 100Q559 100 579.50 120.50Q600 141 600 170Z"  horiz-adv-x="800" vert-adv-y="1460"  />

      
      <glyph glyph-name="uni044F" unicode="&#x044F;" d="M377 300L192 22Q177-1 152-1Q131-1 115 14Q99 29 99 49Q99 64 108 78L258 303Q183 316 139 375Q100 429 100 500Q100 581 150 637Q205 700 300 700L550 700Q600 700 600 650L600 50Q600 0 550 0Q500 0 500 50L500 300L377 300M500 400L500 600L300 600Q253 600 226.50 570.50Q200 541 200 500Q200 459 225 431Q253 400 300 400L500 400Z"  horiz-adv-x="700" vert-adv-y="1460"  />

      
      <glyph glyph-name="uni0160" unicode="&#x0160;" d="M669 916Q691 900 691 876Q691 856 676 840Q661 824 641 824Q625 824 611 834Q515 902 400 902Q325 902 264.50 870.50Q204 839 204 779Q204 743 232 722L603 448Q703 374 703 242Q703 105 598 50Q493-5 392-5Q265-5 127 85Q104 100 104 125Q104 146 118.50 162Q133 178 154 178Q168 178 181 169Q294 96 394 96Q471 96 552 138Q606 167 606 241Q606 322 547 366L176 640Q108 690 108 781Q108 901 219 959Q299 1000 399 1000Q550 1000 669 916M365 1115Q379 1101 400 1101Q420 1101 435 1115L585 1265Q599 1279 599 1300Q599 1321 585 1335Q571 1349 550 1349Q530 1349 515 1335L400 1221L285 1335Q270 1349 250 1349Q229 1349 214.50 1335Q200 1321 200 1300Q200 1279 215 1265L365 1115M365 1115Q379 1101 400 1101Q420 1101 435 1115L585 1265Q599 1279 599 1300Q599 1321 585 1335Q571 1349 550 1349Q530 1349 515 1335L400 1221L285 1335Q270 1349 250 1349Q229 1349 214.50 1335Q200 1321 200 1300Q200 1279 215 1265L365 1115Z"  horiz-adv-x="800" vert-adv-y="1460"  />

      
      <glyph glyph-name="uni0152" unicode="&#x0152;" d="M1101 50Q1101 0 1051 0L650 0Q600 0 600 47L600 50Q533 0 450 0L350 0Q246 0 173 73Q100 146 100 250L100 750Q100 854 173 927Q246 1000 350 1000L450 1000Q533 1000 600 950Q600 1000 650 1000L1051 1000Q1101 1000 1101 950Q1101 900 1051 900L700 900L700 600L951 600Q1001 600 1001 550Q1001 500 951 500L700 500L700 100L1051 100Q1101 100 1101 50M600 250L600 750Q600 812 556 856Q512 900 450 900L350 900Q288 900 244 856Q200 812 200 750L200 250Q200 188 244 144Q288 100 350 100L450 100Q512 100 556 144Q600 188 600 250Z"  horiz-adv-x="1200" vert-adv-y="1460"  />

      
      <glyph glyph-name="uni017D" unicode="&#x017D;" d="M797 922L249 100L755 100Q805 100 805 50Q805 0 755 0L155 0Q100 0 100 40Q100 58 113 78L661 900L155 900Q105 900 105 950Q105 1000 155 1000L755 1000Q810 1000 810 960Q810 942 797 922M415 1115Q429 1101 450 1101Q470 1101 485 1115L635 1265Q649 1279 649 1300Q649 1321 635 1335Q621 1349 600 1349Q580 1349 565 1335L450 1221L335 1335Q320 1349 300 1349Q279 1349 264.50 1335Q250 1321 250 1300Q250 1279 265 1265L415 1115M415 1115Q429 1101 450 1101Q470 1101 485 1115L635 1265Q649 1279 649 1300Q649 1321 635 1335Q621 1349 600 1349Q580 1349 565 1335L450 1221L335 1335Q320 1349 300 1349Q279 1349 264.50 1335Q250 1321 250 1300Q250 1279 265 1265L415 1115Z"  horiz-adv-x="900" vert-adv-y="1460"  />

      
      <glyph glyph-name="uni0161" unicode="&#x0161;" d="M598 601Q598 581 583.50 565Q569 549 549 549Q537 549 525 555Q439 598 354 598Q273 598 215 559Q201 549 201 530Q201 511 215 502L534 292Q595 252 595 175Q595 98 535 58Q449 1 340 1Q233 1 133 56Q106 71 106 99Q106 119 120.50 135Q135 151 155 151Q168 151 181 144Q257 101 338 101Q417 101 479 142Q496 153 496 176Q496 198 479 209L159 419Q105 455 105 529Q105 604 159 641Q243 698 356 698Q464 698 569 645Q598 631 598 601M165 997Q150 1012 150 1032Q150 1053 164.50 1067Q179 1081 200 1081Q220 1081 235 1067L350 953L465 1067Q480 1081 500 1081Q521 1081 535 1067Q549 1053 549 1032Q549 1012 535 997L385 847Q370 833 350 833Q329 833 315 847L165 997Z"  horiz-adv-x="700" vert-adv-y="1460"  />

      
      <glyph glyph-name="uni0153" unicode="&#x0153;" d="M1000 50Q1000 0 950 0L700 0Q605 0 545 74Q479 0 380 0L320 0Q230 0 165 64.50Q100 129 100 220L100 480Q100 571 165 635.50Q230 700 320 700L380 700Q479 700 545 626Q605 700 700 700L800 700Q883 700 941.50 641.50Q1000 583 1000 500L1000 350Q1000 300 950 300L600 300L600 200Q600 159 629.50 129.50Q659 100 700 100L950 100Q1000 100 1000 50M900 400L900 500Q900 541 870.50 570.50Q841 600 800 600L700 600Q659 600 629.50 570.50Q600 541 600 500L600 400L900 400M500 220L500 480Q500 529 465 564.50Q430 600 380 600L320 600Q270 600 235 564.50Q200 529 200 480L200 220Q200 170 235 135Q270 100 320 100L380 100Q430 100 465 135Q500 170 500 220Z"  horiz-adv-x="1100" vert-adv-y="1460"  />

      
      <glyph glyph-name="uni017E" unicode="&#x017E;" d="M592 622L244 100L550 100Q600 100 600 50Q600 0 550 0L150 0Q95 0 95 40Q95 58 108 78L456 600L150 600Q100 600 100 650Q100 700 150 700L550 700Q605 700 605 660Q605 642 592 622M165 997Q150 1012 150 1032Q150 1053 164.50 1067Q179 1081 200 1081Q220 1081 235 1067L350 953L465 1067Q480 1081 500 1081Q521 1081 535 1067Q549 1053 549 1032Q549 1012 535 997L385 847Q370 833 350 833Q329 833 315 847L165 997Z"  horiz-adv-x="700" vert-adv-y="1460"  />

      
      <glyph glyph-name="uni0178" unicode="&#x0178;" d="M405 501L117 917Q104 932 104 950Q104 970 120 985.50Q136 1001 156 1001Q177 1001 193 983L455 597L717 983Q732 1001 754 1001Q774 1001 790 985.50Q806 970 806 950Q806 932 793 917L505 501L505 50Q505 0 455 0Q405 0 405 50L405 501M346 1232Q346 1179 293 1179Q240 1179 240 1232Q240 1286 293 1286Q315 1286 330.50 1270Q346 1254 346 1232M660 1232Q660 1179 607 1179Q554 1179 554 1232Q554 1286 607 1286Q629 1286 644.50 1270Q660 1254 660 1232Z"  horiz-adv-x="900" vert-adv-y="1460"  />

      
      <glyph glyph-name="unibf" unicode="&#xbf;" d="M386 950Q386 900 336 900Q286 900 286 950Q286 1000 336 1000Q386 1000 386 950M256 490Q286 512 286 550L286 750Q286 800 336 800Q386 800 386 750L386 550Q386 463 317 410Q260 366 226 320Q199 283 199 238Q199 183 238 141.50Q277 100 336 100Q435 99 496 180Q512 201 536 201Q556 201 572 186Q588 171 588 151Q588 136 576 120Q484 0 336 0Q234 0 165 74Q99 143 99 239Q99 317 146.50 380.50Q194 444 256 490Z"  horiz-adv-x="700" vert-adv-y="1460"  />

      
      <glyph glyph-name="unic0" unicode="&#xc0;" d="M604 353L457 794L309 353L604 353M275 251L203 35Q192 1 158 1Q106 1 106 49Q106 58 109 67L410 967Q424 1010 457 1010Q490 1010 504 967L804 67Q807 58 807 49Q807 1 755 1Q721 1 710 35L638 251L275 251M392 1328L492 1178Q501 1164 501 1150Q501 1129 485 1114Q469 1099 448 1099Q423 1099 408 1122L308 1272Q299 1286 299 1300Q299 1321 315 1336Q331 1351 352 1351Q377 1351 392 1328Z"  horiz-adv-x="900" vert-adv-y="1460"  />

      
      <glyph glyph-name="unic1" unicode="&#xc1;" d="M604 353L457 794L309 353L604 353M275 251L203 35Q192 1 158 1Q106 1 106 49Q106 58 109 67L410 967Q424 1010 457 1010Q490 1010 504 967L804 67Q807 58 807 49Q807 1 755 1Q721 1 710 35L638 251L275 251M492 1122Q477 1099 452 1099Q431 1099 415 1114Q399 1129 399 1150Q399 1164 408 1178L508 1328Q523 1351 548 1351Q569 1351 585 1336Q601 1321 601 1300Q601 1286 592 1272L492 1122Z"  horiz-adv-x="900" vert-adv-y="1460"  />

      
      <glyph glyph-name="unic2" unicode="&#xc2;" d="M604 353L457 794L309 353L604 353M275 251L203 35Q192 1 158 1Q106 1 106 49Q106 58 109 67L410 967Q424 1010 457 1010Q490 1010 504 967L804 67Q807 58 807 49Q807 1 755 1Q721 1 710 35L638 251L275 251M415 1335Q429 1349 450 1349Q470 1349 485 1335L635 1185Q649 1170 649 1150Q649 1129 635 1115Q621 1101 600 1101Q580 1101 565 1115L450 1229L335 1115Q320 1101 300 1101Q279 1101 264.50 1115Q250 1129 250 1150Q250 1170 265 1185L415 1335Z"  horiz-adv-x="900" vert-adv-y="1460"  />

      
      <glyph glyph-name="unic3" unicode="&#xc3;" d="M604 353L457 794L309 353L604 353M275 251L203 35Q192 1 158 1Q106 1 106 49Q106 58 109 67L410 967Q424 1010 457 1010Q490 1010 504 967L804 67Q807 58 807 49Q807 1 755 1Q721 1 710 35L638 251L275 251M609 1276Q624 1298 650 1298Q670 1298 685 1283Q700 1268 700 1248Q700 1233 691 1220Q640 1146 550 1146Q469 1146 409 1220Q384 1251 350 1251Q312 1251 291 1220Q276 1198 250 1198Q230 1198 215 1213Q200 1228 200 1248Q200 1263 209 1276Q260 1350 350 1350Q430 1350 491 1276Q517 1245 550 1245Q588 1245 609 1276Z"  horiz-adv-x="945" vert-adv-y="1460"  />

      
      <glyph glyph-name="unic4" unicode="&#xc4;" d="M604 353L457 794L309 353L604 353M275 251L203 35Q192 1 158 1Q106 1 106 49Q106 58 109 67L410 967Q424 1010 457 1010Q490 1010 504 967L804 67Q807 58 807 49Q807 1 755 1Q721 1 710 35L638 251L275 251M396 1232Q396 1179 343 1179Q290 1179 290 1232Q290 1286 343 1286Q365 1286 380.50 1270Q396 1254 396 1232M610 1232Q610 1179 557 1179Q504 1179 504 1232Q504 1286 557 1286Q579 1286 594.50 1270Q610 1254 610 1232Z"  horiz-adv-x="900" vert-adv-y="1460"  />

      
      <glyph glyph-name="unic5" unicode="&#xc5;" d="M650 1150Q650 1067 591.50 1008.50Q533 950 450 950Q367 950 308.50 1008.50Q250 1067 250 1150Q250 1233 308.50 1291.50Q367 1350 450 1350Q533 1350 591.50 1291.50Q650 1233 650 1150M550 1150Q550 1191 520.50 1220.50Q491 1250 450 1250Q409 1250 379.50 1220.50Q350 1191 350 1150Q350 1109 379.50 1079.50Q409 1050 450 1050Q491 1050 520.50 1079.50Q550 1109 550 1150M604 353L457 794L309 353L604 353M275 251L203 35Q192 1 158 1Q106 1 106 49Q106 58 109 67L410 967Q424 1010 457 1010Q490 1010 504 967L804 67Q807 58 807 49Q807 1 755 1Q721 1 710 35L638 251L275 251Z"  horiz-adv-x="900" vert-adv-y="1460"  />

      
      <glyph glyph-name="unic6" unicode="&#xc6;" d="M550 350L550 900L486 900L303 350L550 350M1000 0L600 0Q580 0 565 15Q550 30 550 50L550 250L269 250L197 34Q186 0 152 0Q100 0 100 48Q100 57 103 66L403 966Q407 977 422.50 988.50Q438 1000 450 1000L1000 1000Q1050 1000 1050 950Q1050 900 1000 900L650 900L650 600L900 600Q950 600 950 550Q950 500 900 500L650 500L650 100L1000 100Q1050 100 1050 50Q1050 0 1000 0Z"  horiz-adv-x="1150" vert-adv-y="1460"  />

      
      <glyph glyph-name="unic7" unicode="&#xc7;" d="M550 0L350 0Q246 0 173 73Q100 146 100 250L100 750Q100 853 173 926.50Q246 1000 350 1000L550 1000Q600 1000 600 950Q600 900 550 900L350 900Q288 900 244 856Q200 812 200 750L200 250Q200 188 244 144Q288 100 350 100L550 100Q600 100 600 50Q600 0 550 0M450-250Q450-300 400-300Q350-300 350-250L350-150Q350-100 400-100Q450-100 450-150L450-250Z"  horiz-adv-x="700" vert-adv-y="1460"  />

      
      <glyph glyph-name="unic8" unicode="&#xc8;" d="M200 600L451 600Q501 600 501 550Q501 500 451 500L200 500L200 100L551 100Q601 100 601 50Q601 0 551 0L150 0Q100 0 100 47L100 950Q100 1000 150 1000L551 1000Q601 1000 601 950Q601 900 551 900L200 900L200 600M292 1328L392 1178Q401 1164 401 1150Q401 1129 385 1114Q369 1099 348 1099Q323 1099 308 1122L208 1272Q199 1286 199 1300Q199 1321 215 1336Q231 1351 252 1351Q277 1351 292 1328Z"  horiz-adv-x="700" vert-adv-y="1460"  />

      
      <glyph glyph-name="unic9" unicode="&#xc9;" d="M200 600L451 600Q501 600 501 550Q501 500 451 500L200 500L200 100L551 100Q601 100 601 50Q601 0 551 0L150 0Q100 0 100 47L100 950Q100 1000 150 1000L551 1000Q601 1000 601 950Q601 900 551 900L200 900L200 600M392 1121Q377 1098 352 1098Q331 1098 315 1113Q299 1128 299 1149Q299 1163 308 1177L408 1327Q423 1350 448 1350Q469 1350 485 1335Q501 1320 501 1299Q501 1285 492 1271L392 1121Z"  horiz-adv-x="700" vert-adv-y="1460"  />

      
      <glyph glyph-name="unica" unicode="&#xca;" d="M200 600L451 600Q501 600 501 550Q501 500 451 500L200 500L200 100L551 100Q601 100 601 50Q601 0 551 0L150 0Q100 0 100 47L100 950Q100 1000 150 1000L551 1000Q601 1000 601 950Q601 900 551 900L200 900L200 600M315 1335Q329 1349 350 1349Q370 1349 385 1335L535 1185Q549 1170 549 1150Q549 1129 535 1115Q521 1101 500 1101Q480 1101 465 1115L350 1229L235 1115Q220 1101 200 1101Q179 1101 164.50 1115Q150 1129 150 1150Q150 1170 165 1185L315 1335Z"  horiz-adv-x="700" vert-adv-y="1460"  />

      
      <glyph glyph-name="unicb" unicode="&#xcb;" d="M200 600L451 600Q501 600 501 550Q501 500 451 500L200 500L200 100L551 100Q601 100 601 50Q601 0 551 0L150 0Q100 0 100 47L100 950Q100 1000 150 1000L551 1000Q601 1000 601 950Q601 900 551 900L200 900L200 600M296 1232Q296 1179 243 1179Q190 1179 190 1232Q190 1286 243 1286Q265 1286 280.50 1270Q296 1254 296 1232M510 1232Q510 1179 457 1179Q404 1179 404 1232Q404 1286 457 1286Q479 1286 494.50 1270Q510 1254 510 1232Z"  horiz-adv-x="700" vert-adv-y="1460"  />

      
      <glyph glyph-name="unicc" unicode="&#xcc;" d="M200 50Q200 0 150 0Q100 0 100 50L100 950Q100 1000 150 1000Q200 1000 200 950L200 50M112 1327L212 1177Q221 1163 221 1149Q221 1128 205 1113Q189 1098 168 1098Q143 1098 128 1121L28 1271Q19 1285 19 1299Q19 1320 35 1335Q51 1350 72 1350Q97 1350 112 1327Z"  horiz-adv-x="300" vert-adv-y="1460"  />

      
      <glyph glyph-name="unicd" unicode="&#xcd;" d="M200 50Q200 0 150 0Q100 0 100 50L100 950Q100 1000 150 1000Q200 1000 200 950L200 50M182 1121Q167 1098 142 1098Q121 1098 105 1113Q89 1128 89 1149Q89 1163 98 1177L198 1327Q213 1350 238 1350Q259 1350 275 1335Q291 1320 291 1299Q291 1285 282 1271L182 1121Z"  horiz-adv-x="300" vert-adv-y="1460"  />

      
      <glyph glyph-name="unice" unicode="&#xce;" d="M200 50Q200 0 150 0Q100 0 100 50L100 950Q100 1000 150 1000Q200 1000 200 950L200 50M115 1336Q129 1350 150 1350Q170 1350 185 1336L335 1186Q349 1171 349 1151Q349 1130 335 1116Q321 1102 300 1102Q280 1102 265 1116L150 1230L35 1116Q20 1102 0 1102Q-21 1102-35 1116Q-49 1130-49 1151Q-49 1171-35 1186L115 1336Z"  horiz-adv-x="300" vert-adv-y="1460"  />

      
      <glyph glyph-name="unicf" unicode="&#xcf;" d="M200 50Q200 0 150 0Q100 0 100 50L100 950Q100 1000 150 1000Q200 1000 200 950L200 50M96 1232Q96 1179 43 1179Q-10 1179-10 1232Q-10 1286 43 1286Q65 1286 80.50 1270Q96 1254 96 1232M310 1232Q310 1179 257 1179Q204 1179 204 1232Q204 1286 257 1286Q279 1286 294.50 1270Q310 1254 310 1232Z"  horiz-adv-x="300" vert-adv-y="1460"  />

      
      <glyph glyph-name="unid0" unicode="&#xd0;" d="M700 250Q700 146 626.50 73Q553 0 450 0L150 0Q130 0 115 15Q100 30 100 50L100 950Q100 970 115 985Q130 1000 150 1000L450 1000Q553 1000 626.50 926.50Q700 853 700 750L700 250M600 250L600 750Q600 812 556 856Q512 900 450 900L200 900L200 100L450 100Q512 100 556 144Q600 188 600 250M400 500Q400 450 350 450L50 450Q0 450 0 500Q0 550 50 550L350 550Q400 550 400 500Z"  horiz-adv-x="800" vert-adv-y="1460"  />

      
      <glyph glyph-name="unid1" unicode="&#xd1;" d="M699 55Q699-1 653-1Q623-1 605 31L200 751L200 50Q200 0 150 0Q100 0 100 50L100 945Q100 1000 147 1000Q177 1000 194 969L599 249L599 950Q599 1000 649 1000Q699 1000 699 950L699 55M559 1276Q574 1298 600 1298Q620 1298 635 1283Q650 1268 650 1248Q650 1233 641 1220Q590 1146 500 1146Q419 1146 359 1220Q334 1251 300 1251Q262 1251 241 1220Q226 1198 200 1198Q180 1198 165 1213Q150 1228 150 1248Q150 1263 159 1276Q210 1350 300 1350Q380 1350 441 1276Q467 1245 500 1245Q538 1245 559 1276Z"  horiz-adv-x="800" vert-adv-y="1460"  />

      
      <glyph glyph-name="unid2" unicode="&#xd2;" d="M700 250Q700 146 626.50 73Q553 0 450 0L350 0Q246 0 173 73Q100 146 100 250L100 750Q100 853 173 926.50Q246 1000 350 1000L450 1000Q553 1000 626.50 926.50Q700 853 700 750L700 250M600 250L600 750Q600 812 556 856Q512 900 450 900L350 900Q288 900 244 856Q200 812 200 750L200 250Q200 188 244 144Q288 100 350 100L450 100Q512 100 556 144Q600 188 600 250M332 1327L432 1177Q441 1163 441 1149Q441 1128 425 1113Q409 1098 388 1098Q363 1098 348 1121L248 1271Q239 1285 239 1299Q239 1320 255 1335Q271 1350 292 1350Q317 1350 332 1327Z"  horiz-adv-x="800" vert-adv-y="1460"  />

      
      <glyph glyph-name="unid3" unicode="&#xd3;" d="M700 250Q700 146 626.50 73Q553 0 450 0L350 0Q246 0 173 73Q100 146 100 250L100 750Q100 853 173 926.50Q246 1000 350 1000L450 1000Q553 1000 626.50 926.50Q700 853 700 750L700 250M600 250L600 750Q600 812 556 856Q512 900 450 900L350 900Q288 900 244 856Q200 812 200 750L200 250Q200 188 244 144Q288 100 350 100L450 100Q512 100 556 144Q600 188 600 250M452 1121Q437 1098 412 1098Q391 1098 375 1113Q359 1128 359 1149Q359 1163 368 1177L468 1327Q483 1350 508 1350Q529 1350 545 1335Q561 1320 561 1299Q561 1285 552 1271L452 1121Z"  horiz-adv-x="800" vert-adv-y="1460"  />

      
      <glyph glyph-name="unid4" unicode="&#xd4;" d="M700 250Q700 146 626.50 73Q553 0 450 0L350 0Q246 0 173 73Q100 146 100 250L100 750Q100 853 173 926.50Q246 1000 350 1000L450 1000Q553 1000 626.50 926.50Q700 853 700 750L700 250M600 250L600 750Q600 812 556 856Q512 900 450 900L350 900Q288 900 244 856Q200 812 200 750L200 250Q200 188 244 144Q288 100 350 100L450 100Q512 100 556 144Q600 188 600 250M365 1336Q379 1350 400 1350Q420 1350 435 1336L585 1186Q599 1171 599 1151Q599 1130 585 1116Q571 1102 550 1102Q530 1102 515 1116L400 1230L285 1116Q270 1102 250 1102Q229 1102 214.50 1116Q200 1130 200 1151Q200 1171 215 1186L365 1336Z"  horiz-adv-x="800" vert-adv-y="1460"  />

      
      <glyph glyph-name="unid5" unicode="&#xd5;" d="M700 250Q700 146 626.50 73Q553 0 450 0L350 0Q246 0 173 73Q100 146 100 250L100 750Q100 853 173 926.50Q246 1000 350 1000L450 1000Q553 1000 626.50 926.50Q700 853 700 750L700 250M600 250L600 750Q600 812 556 856Q512 900 450 900L350 900Q288 900 244 856Q200 812 200 750L200 250Q200 188 244 144Q288 100 350 100L450 100Q512 100 556 144Q600 188 600 250M559 1276Q574 1298 600 1298Q620 1298 635 1283Q650 1268 650 1248Q650 1233 641 1220Q590 1146 500 1146Q419 1146 359 1220Q334 1251 300 1251Q262 1251 241 1220Q226 1198 200 1198Q180 1198 165 1213Q150 1228 150 1248Q150 1263 159 1276Q210 1350 300 1350Q380 1350 441 1276Q467 1245 500 1245Q538 1245 559 1276Z"  horiz-adv-x="800" vert-adv-y="1460"  />

      
      <glyph glyph-name="unid6" unicode="&#xd6;" d="M700 250Q700 146 626.50 73Q553 0 450 0L350 0Q246 0 173 73Q100 146 100 250L100 750Q100 853 173 926.50Q246 1000 350 1000L450 1000Q553 1000 626.50 926.50Q700 853 700 750L700 250M600 250L600 750Q600 812 556 856Q512 900 450 900L350 900Q288 900 244 856Q200 812 200 750L200 250Q200 188 244 144Q288 100 350 100L450 100Q512 100 556 144Q600 188 600 250M346 1232Q346 1179 293 1179Q240 1179 240 1232Q240 1286 293 1286Q315 1286 330.50 1270Q346 1254 346 1232M560 1232Q560 1179 507 1179Q454 1179 454 1232Q454 1286 507 1286Q529 1286 544.50 1270Q560 1254 560 1232Z"  horiz-adv-x="800" vert-adv-y="1460"  />

      
      <glyph glyph-name="unid7" unicode="&#xd7;" d="M350 420L515 585Q530 600 549 600Q569 600 584.50 584.50Q600 569 600 549Q600 530 585 515L420 350L585 185Q600 170 600 151Q600 131 584.50 115.50Q569 100 549 100Q530 100 515 115L350 280L185 115Q170 100 151 100Q131 100 115.50 115.50Q100 131 100 151Q100 170 115 185L280 350L115 515Q100 530 100 549Q100 569 115.50 584.50Q131 600 151 600Q170 600 185 585L350 420Z"  horiz-adv-x="700" vert-adv-y="1460"  />

      
      <glyph glyph-name="unid8" unicode="&#xd8;" d="M700 250Q700 146 626.50 73Q553 0 450 0L350 0Q246 0 173 73Q100 146 100 250L100 750Q100 853 173 926.50Q246 1000 350 1000L450 1000Q553 1000 626.50 926.50Q700 853 700 750L700 250M600 250L600 750Q600 812 556 856Q512 900 450 900L350 900Q288 900 244 856Q200 812 200 750L200 250Q200 188 244 144Q288 100 350 100L450 100Q512 100 556 144Q600 188 600 250M742 922L142 22Q127-1 101-1Q81-1 65 14Q49 29 49 49Q49 64 58 78L658 978Q673 1001 699 1001Q719 1001 735 986Q751 971 751 951Q751 935 742 922Z"  horiz-adv-x="800" vert-adv-y="1460"  />

      
      <glyph glyph-name="unid9" unicode="&#xd9;" d="M700 250Q700 146 627 73Q554 0 450 0L350 0Q246 0 173 73Q100 146 100 250L100 950Q100 1000 150 1000Q200 1000 200 950L200 250Q200 188 244 144Q288 100 350 100L450 100Q512 100 556 144Q600 188 600 250L600 950Q600 1000 650 1000Q700 1000 700 950L700 250M322 1327L422 1177Q431 1163 431 1149Q431 1128 415 1113Q399 1098 378 1098Q353 1098 338 1121L238 1271Q229 1285 229 1299Q229 1320 245 1335Q261 1350 282 1350Q307 1350 322 1327Z"  horiz-adv-x="800" vert-adv-y="1460"  />

      
      <glyph glyph-name="unida" unicode="&#xda;" d="M700 250Q700 146 627 73Q554 0 450 0L350 0Q246 0 173 73Q100 146 100 250L100 950Q100 1000 150 1000Q200 1000 200 950L200 250Q200 188 244 144Q288 100 350 100L450 100Q512 100 556 144Q600 188 600 250L600 950Q600 1000 650 1000Q700 1000 700 950L700 250M432 1121Q417 1098 392 1098Q371 1098 355 1113Q339 1128 339 1149Q339 1163 348 1177L448 1327Q463 1350 488 1350Q509 1350 525 1335Q541 1320 541 1299Q541 1285 532 1271L432 1121Z"  horiz-adv-x="800" vert-adv-y="1460"  />

      
      <glyph glyph-name="unidb" unicode="&#xdb;" d="M700 250Q700 146 627 73Q554 0 450 0L350 0Q246 0 173 73Q100 146 100 250L100 950Q100 1000 150 1000Q200 1000 200 950L200 250Q200 188 244 144Q288 100 350 100L450 100Q512 100 556 144Q600 188 600 250L600 950Q600 1000 650 1000Q700 1000 700 950L700 250M365 1336Q379 1350 400 1350Q420 1350 435 1336L585 1186Q599 1171 599 1151Q599 1130 585 1116Q571 1102 550 1102Q530 1102 515 1116L400 1230L285 1116Q270 1102 250 1102Q229 1102 214.50 1116Q200 1130 200 1151Q200 1171 215 1186L365 1336Z"  horiz-adv-x="800" vert-adv-y="1460"  />

      
      <glyph glyph-name="unidc" unicode="&#xdc;" d="M700 250Q700 146 627 73Q554 0 450 0L350 0Q246 0 173 73Q100 146 100 250L100 950Q100 1000 150 1000Q200 1000 200 950L200 250Q200 188 244 144Q288 100 350 100L450 100Q512 100 556 144Q600 188 600 250L600 950Q600 1000 650 1000Q700 1000 700 950L700 250M346 1232Q346 1179 293 1179Q240 1179 240 1232Q240 1286 293 1286Q315 1286 330.50 1270Q346 1254 346 1232M560 1232Q560 1179 507 1179Q454 1179 454 1232Q454 1286 507 1286Q529 1286 544.50 1270Q560 1254 560 1232Z"  horiz-adv-x="800" vert-adv-y="1460"  />

      
      <glyph glyph-name="unidd" unicode="&#xdd;" d="M405 501L117 917Q104 932 104 950Q104 970 120 985.50Q136 1001 156 1001Q177 1001 193 983L455 597L717 983Q732 1001 754 1001Q774 1001 790 985.50Q806 970 806 950Q806 932 793 917L505 501L505 50Q505 0 455 0Q405 0 405 50L405 501M522 1121Q507 1098 482 1098Q461 1098 445 1113Q429 1128 429 1149Q429 1163 438 1177L538 1327Q553 1350 578 1350Q599 1350 615 1335Q631 1320 631 1299Q631 1285 622 1271L522 1121Z"  horiz-adv-x="900" vert-adv-y="1460"  />

      
      <glyph glyph-name="unide" unicode="&#xde;" d="M700 450Q700 326 612 238Q524 150 400 150L200 150L200 50Q200 0 150 0Q100 0 100 50L100 950Q100 1000 150 1000Q200 1000 200 950L200 850L400 850Q524 850 612 762Q700 674 700 550L700 450M600 450L600 550Q600 633 541.50 691.50Q483 750 400 750L200 750L200 250L400 250Q483 250 541.50 308.50Q600 367 600 450Z"  horiz-adv-x="800" vert-adv-y="1460"  />

      
      <glyph glyph-name="unidf" unicode="&#xdf;" d="M700 150Q700 88 656 44Q612 0 550 0L500 0Q450 0 450 50Q450 100 500 100L550 100Q600 100 600 150L600 450Q600 491 570.50 520.50Q541 550 500 550L450 550Q400 550 400 600Q400 650 450 650L500 650Q541 650 570.50 679.50Q600 709 600 750L600 800Q600 841 570.50 870.50Q541 900 500 900L250 900Q200 900 200 850L200 50Q200 0 150 0Q100 0 100 50L100 850Q100 912 144 956Q188 1000 250 1000L500 1000Q583 1000 641.50 941.50Q700 883 700 800L700 750Q700 660 632 600Q700 540 700 450L700 150Z"  horiz-adv-x="800" vert-adv-y="1460"  />

      
      <glyph glyph-name="unie0" unicode="&#xe0;" d="M549 66Q489 0 400 0L300 0Q218 0 159 58.50Q100 117 100 200L100 500Q100 583 159 641.50Q218 700 300 700L550 700Q600 700 600 650L600 201Q600 126 670 96Q701 83 701 52Q701 31 687 15Q673-1 652-1Q641-1 630 4Q580 26 549 66M500 200L500 600L300 600Q259 600 229.50 570.50Q200 541 200 500L200 200Q200 159 229.50 129.50Q259 100 300 100L400 100Q441 100 470.50 129.50Q500 159 500 200M332 1060L432 910Q441 896 441 882Q441 861 424.50 846Q408 831 388 831Q363 831 348 854L248 1004Q239 1017 239 1032Q239 1053 255.50 1068Q272 1083 292 1083Q317 1083 332 1060Z"  horiz-adv-x="700" vert-adv-y="1460"  />

      
      <glyph glyph-name="unie1" unicode="&#xe1;" d="M549 66Q489 0 400 0L300 0Q218 0 159 58.50Q100 117 100 200L100 500Q100 583 159 641.50Q218 700 300 700L550 700Q600 700 600 650L600 201Q600 126 670 96Q701 83 701 52Q701 31 687 15Q673-1 652-1Q641-1 630 4Q580 26 549 66M500 200L500 600L300 600Q259 600 229.50 570.50Q200 541 200 500L200 200Q200 159 229.50 129.50Q259 100 300 100L400 100Q441 100 470.50 129.50Q500 159 500 200M422 854Q407 831 382 831Q361 831 345 846Q329 861 329 882Q329 896 338 910L438 1060Q453 1083 478 1083Q499 1083 515 1068Q531 1053 531 1032Q531 1018 522 1004L422 854Z"  horiz-adv-x="700" vert-adv-y="1460"  />

      
      <glyph glyph-name="unie2" unicode="&#xe2;" d="M549 66Q489 0 400 0L300 0Q218 0 159 58.50Q100 117 100 200L100 500Q100 583 159 641.50Q218 700 300 700L550 700Q600 700 600 650L600 201Q600 126 670 96Q701 83 701 52Q701 31 687 15Q673-1 652-1Q641-1 630 4Q580 26 549 66M500 200L500 600L300 600Q259 600 229.50 570.50Q200 541 200 500L200 200Q200 159 229.50 129.50Q259 100 300 100L400 100Q441 100 470.50 129.50Q500 159 500 200M315 1067Q329 1081 350 1081Q370 1081 385 1067L535 917Q549 902 549 882Q549 861 535 847Q521 833 500 833Q480 833 465 847L350 961L235 847Q220 833 200 833Q179 833 164.50 847Q150 861 150 882Q150 902 165 917L315 1067Z"  horiz-adv-x="700" vert-adv-y="1460"  />

      
      <glyph glyph-name="unie3" unicode="&#xe3;" d="M549 66Q489 0 400 0L300 0Q218 0 159 58.50Q100 117 100 200L100 500Q100 583 159 641.50Q218 700 300 700L550 700Q600 700 600 650L600 201Q600 126 670 96Q701 83 701 52Q701 31 687 15Q673-1 652-1Q641-1 630 4Q580 26 549 66M500 200L500 600L300 600Q259 600 229.50 570.50Q200 541 200 500L200 200Q200 159 229.50 129.50Q259 100 300 100L400 100Q441 100 470.50 129.50Q500 159 500 200M509 1010Q524 1032 550 1032Q570 1032 585 1017Q600 1002 600 982Q600 967 591 954Q540 880 450 880Q369 880 309 954Q284 985 250 985Q212 985 191 954Q176 932 150 932Q130 932 115 947Q100 962 100 982Q100 997 109 1010Q160 1084 250 1084Q330 1084 391 1010Q417 979 450 979Q488 979 509 1010Z"  horiz-adv-x="700" vert-adv-y="1460"  />

      
      <glyph glyph-name="unie4" unicode="&#xe4;" d="M549 66Q489 0 400 0L300 0Q218 0 159 58.50Q100 117 100 200L100 500Q100 583 159 641.50Q218 700 300 700L550 700Q600 700 600 650L600 201Q600 126 670 96Q701 83 701 52Q701 31 687 15Q673-1 652-1Q641-1 630 4Q580 26 549 66M500 200L500 600L300 600Q259 600 229.50 570.50Q200 541 200 500L200 200Q200 159 229.50 129.50Q259 100 300 100L400 100Q441 100 470.50 129.50Q500 159 500 200M326 964Q326 911 273 911Q220 911 220 964Q220 1018 273 1018Q295 1018 310.50 1002Q326 986 326 964M540 964Q540 911 487 911Q434 911 434 964Q434 1018 487 1018Q509 1018 524.50 1002Q540 986 540 964Z"  horiz-adv-x="700" vert-adv-y="1460"  />

      
      <glyph glyph-name="unie5" unicode="&#xe5;" d="M549 66Q489 0 400 0L300 0Q218 0 159 58.50Q100 117 100 200L100 500Q100 583 159 641.50Q218 700 300 700L550 700Q600 700 600 650L600 201Q600 126 670 96Q701 83 701 52Q701 31 687 15Q673-1 652-1Q641-1 630 4Q580 26 549 66M500 200L500 600L300 600Q259 600 229.50 570.50Q200 541 200 500L200 200Q200 159 229.50 129.50Q259 100 300 100L400 100Q441 100 470.50 129.50Q500 159 500 200M400 960Q400 1010 350 1010Q300 1010 300 960Q300 910 350 910Q400 910 400 960M500 960Q500 898 456 854Q412 810 350 810Q288 810 244 854Q200 898 200 960Q200 1022 244 1066Q288 1110 350 1110Q412 1110 456 1066Q500 1022 500 960Z"  horiz-adv-x="700" vert-adv-y="1460"  />

      
      <glyph glyph-name="unie6" unicode="&#xe6;" d="M500 195L500 600L300 600Q259 600 229.50 570.50Q200 541 200 500L200 200Q200 159 229.50 129.50Q259 100 300 100L400 100Q442 100 471 127.50Q500 155 500 194L500 195M900 400L900 500Q900 541 870.50 570.50Q841 600 800 600L700 600Q659 600 629.50 570.50Q600 541 600 500L600 400L900 400M1000 350Q1000 330 985 315Q970 300 950 300L600 300L600 196Q600 156 629.50 128Q659 100 700 100L950 100Q1000 100 1000 50Q1000 0 950 0L700 0Q611 0 551 67Q491 0 400 0L300 0Q217 0 158.50 58.50Q100 117 100 200L100 500Q100 583 158.50 641.50Q217 700 300 700L550 700Q581 700 595 670Q644 700 700 700L800 700Q883 700 941.50 641.50Q1000 583 1000 500L1000 350Z"  horiz-adv-x="1100" vert-adv-y="1460"  />

      
      <glyph glyph-name="unie7" unicode="&#xe7;" d="M450 0L300 0Q218 0 159 58.50Q100 117 100 200L100 500Q100 583 159 641.50Q218 700 300 700L450 700Q500 700 500 650Q500 600 450 600L300 600Q259 600 229.50 570.50Q200 541 200 500L200 200Q200 159 229.50 129.50Q259 100 300 100L450 100Q500 100 500 50Q500 0 450 0M390-250Q390-300 340-300Q290-300 290-250L290-150Q290-100 340-100Q390-100 390-150L390-250Z"  horiz-adv-x="600" vert-adv-y="1460"  />

      
      <glyph glyph-name="unie8" unicode="&#xe8;" d="M200 300L200 200Q200 159 229.50 129.50Q259 100 300 100L550 100Q600 100 600 50Q600 0 550 0L300 0Q217 0 158.50 58.50Q100 117 100 200L100 500Q100 583 158.50 641.50Q217 700 300 700L400 700Q483 700 541.50 641.50Q600 583 600 500L600 350Q600 300 550 300L200 300M200 400L500 400L500 500Q500 541 470.50 570.50Q441 600 400 600L300 600Q259 600 229.50 570.50Q200 541 200 500L200 400M312 1060L412 910Q421 896 421 882Q421 861 404.50 846Q388 831 368 831Q343 831 328 854L228 1004Q219 1017 219 1032Q219 1053 235.50 1068Q252 1083 272 1083Q297 1083 312 1060Z"  horiz-adv-x="700" vert-adv-y="1460"  />

      
      <glyph glyph-name="unie9" unicode="&#xe9;" d="M200 300L200 200Q200 159 229.50 129.50Q259 100 300 100L550 100Q600 100 600 50Q600 0 550 0L300 0Q217 0 158.50 58.50Q100 117 100 200L100 500Q100 583 158.50 641.50Q217 700 300 700L400 700Q483 700 541.50 641.50Q600 583 600 500L600 350Q600 300 550 300L200 300M200 400L500 400L500 500Q500 541 470.50 570.50Q441 600 400 600L300 600Q259 600 229.50 570.50Q200 541 200 500L200 400M372 854Q357 831 332 831Q311 831 295 846Q279 861 279 882Q279 896 288 910L388 1060Q403 1083 428 1083Q449 1083 465 1068Q481 1053 481 1032Q481 1018 472 1004L372 854Z"  horiz-adv-x="700" vert-adv-y="1460"  />

      
      <glyph glyph-name="uniea" unicode="&#xea;" d="M200 300L200 200Q200 159 229.50 129.50Q259 100 300 100L550 100Q600 100 600 50Q600 0 550 0L300 0Q217 0 158.50 58.50Q100 117 100 200L100 500Q100 583 158.50 641.50Q217 700 300 700L400 700Q483 700 541.50 641.50Q600 583 600 500L600 350Q600 300 550 300L200 300M200 400L500 400L500 500Q500 541 470.50 570.50Q441 600 400 600L300 600Q259 600 229.50 570.50Q200 541 200 500L200 400M315 1067Q329 1081 350 1081Q370 1081 385 1067L535 917Q549 902 549 882Q549 861 535 847Q521 833 500 833Q480 833 465 847L350 961L235 847Q220 833 200 833Q179 833 164.50 847Q150 861 150 882Q150 902 165 917L315 1067Z"  horiz-adv-x="700" vert-adv-y="1460"  />

      
      <glyph glyph-name="unieb" unicode="&#xeb;" d="M200 300L200 200Q200 159 229.50 129.50Q259 100 300 100L550 100Q600 100 600 50Q600 0 550 0L300 0Q217 0 158.50 58.50Q100 117 100 200L100 500Q100 583 158.50 641.50Q217 700 300 700L400 700Q483 700 541.50 641.50Q600 583 600 500L600 350Q600 300 550 300L200 300M200 400L500 400L500 500Q500 541 470.50 570.50Q441 600 400 600L300 600Q259 600 229.50 570.50Q200 541 200 500L200 400M296 964Q296 911 243 911Q190 911 190 964Q190 1018 243 1018Q265 1018 280.50 1002Q296 986 296 964M510 964Q510 911 457 911Q404 911 404 964Q404 1018 457 1018Q479 1018 494.50 1002Q510 986 510 964Z"  horiz-adv-x="700" vert-adv-y="1460"  />

      
      </font>
</defs>
</svg>
